[bittorrent] Warren Zevon 1994-02-07.Symphony Hall.Syracuse.sbd.msc.happyjack.Flac16 [New Source]

Automated Mailer noreply-bt.e at etree.org
Fri Apr 28 20:44:46 UTC 2017


Band:           Other
Torrent Name:   Warren Zevon 1994-02-07.Symphony Hall.Syracuse.sbd.msc.happyjack.Flac16  [New Source]
Uploaded by:    dedhed69
DB Link:        
Details:        http://bt.etree.org/details.php?id=592638

Contact the seeder at http://db.etree.org/dedhed69

If the link to this show does not work, it was probably removed for
being non-trade-friendly.

Description / text file:
-------------------------

WARREN ZEVON
Solo Tour  [w/  Duncan "Dr Babyhead"  Aldrich]
Symphony Hall 
319 S Clinton St, 
Syracuse NY
February 2, 1994

Acoustic Show
Very small venue

              A Gratefully Little Deadicated Feat Recording 
       [Happy Jack's Masters Cassette Analog Collection #5]
            *** 16 Bit Version *** 1st TIME IN CIRCULATION 

Taper: Friend
All Mastering & Editing by Happy Jack [aka; dedhed69] 4/2017

Soundboard
Source: sbd > sony tc-d-5 > Master [Maxell XLII-S90 cassette] 

Transfer.[Master cassette] > PC wav[16bit 441,1khz] > CD Wave Editor >TLH Flac16 > cdr data Flac

Mastering
Lineage: cdr data Flac[16bit 44.1khz Flac] > Adobe Audition 3 > Flac16

Set List
01. Intro. >Splendid Isolation *
02. Lawyers Guns & Money *
03. Why Can't This Be Love* > Intro of Dr. Babyhead
04. Things To Do In Denver When You're Dead * > Banter 
05. Heartache Spoken Here*
06. Acoustic Solo > Boom Boom Mancini *
07. Crowd > Switch to Piano
08. Johnny Strikes Up The Band ^
09. Play It All Night Long ^
10. Desperadoes Under The Eaves ^ > Banter 
11. Jolie Blonde* (Trad.)
12. Acoustic Solo > Poor Poor Pitiful Me > Acoustic Solo > Poor Poor Pitiful Me * 
13. I'll Feel A Whole Lot Better * 
14. Vast Indifference Of Heaven * > Banter 
15. Seminole Bingo ^
16. Excitable Boy ^ > Dr. Babyhead Solo
17. Roland Chorale Intro. > Roland The Headless Thompson Gunner > Roland Chorale Outro. ^
18. Mr. Bad Example * > Banter 
19. Werewolves Of London ^
20. Mohammed's Radio ^

Show Notes
board problem before track 01
* - with guitar
^ - with piano
Track 03 - Van Halen cover
Track 13 - The Byrds cover

The Band
Warren Zevon - Acoustic 6 and 12 String Guitar,Piano and Vocals
Duncan "Dr Babyhead"  Aldrich - Sax and Banjo

Source Notes
Removed some clicks & pops that were coming from my connection to the board later in the show. 
Other Mastering Notes
Lowered db gain on tracks 01,02 & 03.[ Notes: The recording started hot]
raised the db gain where needed


SUPPORT THE ARTIST
http://www.warrenzevon.com/
Buy the Music. Support Warren !!

WHAT A FANTASTIC SHOW & SOUND OF WARREN ZEVON IN A SMALL INTIMENT VENUE
ONE OF THE BEST SONG WRITERS

Happy Jack Notes
I circulated once before but info was inacurate & incomplete older copy, plus this has the complete mastering. 4/2017
thanks to my friend box of treasured memories
Included ticket stub jpg.
added a picture of Dr. Babyhead in file folder
created text with info. of show 
added an md5
added ffp
addede shnlen tool text
SBEs Fixed

  The rest of my Recordings has been stolen along with many others while I was in the Hospital for Spinal Bacteria Meningitas. The  good news there r about 75 recordings still here I would & Like them see the light & ears of others as my health is declinig. Plus it is good therapy for me to do this once again. I have not touched most of these tapes in 25 - 30 years. God Bless & Enjoy Jack

DO NOT SELL !!!!

ENJOY/SHARE WITH FAMILY & FRIENDS [That you trust & just loves the music]

Happy Jack
Please beware of us old school tapers who may have lost the tolerance for being disrespected! After so many years how many end up asking for a show!!!
Please Be Kind

MD5
f6a637a08a5de776eeafe4523e773639 *WZ 1994-02-07 Track01-fixed.flac
3ecb10570deea46833ab230a56d159ef *WZ 1994-02-07 Track02-fixed.flac
6971c1641da0e483fb97d3b58b7af611 *WZ 1994-02-07 Track03-fixed.flac
fd15883cac384d3de38f91515e2af492 *WZ 1994-02-07 Track04-fixed.flac
44501bbce7de27b9e699984e5dbd8bff *WZ 1994-02-07 Track05-fixed.flac
0c91d85ea9be6a2db6e10925d24422b5 *WZ 1994-02-07 Track06-fixed.flac
94d235dcc6cf0e117c4d2a0c67fa7d86 *WZ 1994-02-07 Track07-fixed.flac
ea6066e5c25c9dce5bb88bfff8facf0a *WZ 1994-02-07 Track08-fixed.flac
aa3549a34b572b0f3a5de8d4ba0004be *WZ 1994-02-07 Track09-fixed.flac
f2f2caeb62b13ab5a068a75737b72714 *WZ 1994-02-07 Track10-fixed.flac
941e496b92ae7c3c58bfe7531318c677 *WZ 1994-02-07 Track11-fixed.flac
0caafd2df1169b08224eddc544abe995 *WZ 1994-02-07 Track12-fixed.flac
e741e2be2abb61c3f894dbde51bc8b83 *WZ 1994-02-07 Track13-fixed.flac
a1d47685d486903aff20b267e81cc2a9 *WZ 1994-02-07 Track14-fixed.flac
1915458d70e302bc9a5339c189046180 *WZ 1994-02-07 Track15-fixed.flac
74b8f3288c61131f4410f7753f63cb98 *WZ 1994-02-07 Track16-fixed.flac
c0a6beed3656dc770ac09f89b370df31 *WZ 1994-02-07 Track17-fixed.flac
c3ef73364cb9ff0b1ac68f9a63836567 *WZ 1994-02-07 Track18-fixed.flac
9659890489b2a52f4352ff701513da46 *WZ 1994-02-07 Track19-fixed.flac
f0b766499c2f80758af2f3dd49a466b1 *WZ 1994-02-07 Track20-fixed.flac

    length     expanded size    cdr  WAVE problems  fmt   ratio  filename
     4:55.34       52118012 B   ---   --   ---xx   flac  0.5430  WZ 1994-02-07 Track01-fixed.flac
     3:04.16       32495276 B   ---   --   ---xx   flac  0.6438  WZ 1994-02-07 Track02-fixed.flac
     3:26.13       36369020 B   ---   --   ---xx   flac  0.4691  WZ 1994-02-07 Track03-fixed.flac
     3:46.61       40009916 B   ---   --   ---xx   flac  0.4996  WZ 1994-02-07 Track04-fixed.flac
     3:22.17       35672828 B   ---   --   ---xx   flac  0.5223  WZ 1994-02-07 Track05-fixed.flac
     4:59.30       52814204 B   ---   --   ---xx   flac  0.5096  WZ 1994-02-07 Track06-fixed.flac
     0:44.52        7883948 B   ---   --   ---xx   flac  0.3159  WZ 1994-02-07 Track07-fixed.flac
     2:09.07       22772108 B   ---   --   ---xx   flac  0.4526  WZ 1994-02-07 Track08-fixed.flac
     3:56.20       41677484 B   ---   --   ---xx   flac  0.4457  WZ 1994-02-07 Track09-fixed.flac
     4:33.68       48317180 B   ---   --   ---xx   flac  0.3882  WZ 1994-02-07 Track10-fixed.flac
     3:14.43       34322780 B   ---   --   ---xx   flac  0.5279  WZ 1994-02-07 Track11-fixed.flac
     5:21.34       56704412 B   ---   --   ---xx   flac  0.5754  WZ 1994-02-07 Track12-fixed.flac
     1:43.56       18300956 B   ---   --   ---xx   flac  0.6030  WZ 1994-02-07 Track13-fixed.flac
     5:18.04       56104652 B   ---   --   ---xx   flac  0.5136  WZ 1994-02-07 Track14-fixed.flac
     3:14.50       34339244 B   ---   --   ---xx   flac  0.5000  WZ 1994-02-07 Track15-fixed.flac
     4:06.65       43547324 B   ---   --   ---xx   flac  0.4680  WZ 1994-02-07 Track16-fixed.flac
     9:48.12      103751468 B   ---   --   ---xx   flac  0.4651  WZ 1994-02-07 Track17-fixed.flac
     3:50.59       40710812 B   ---   --   ---xx   flac  0.6064  WZ 1994-02-07 Track18-fixed.flac
     3:31.25       37279244 B   ---   --   ---xx   flac  0.4887  WZ 1994-02-07 Track19-fixed.flac
     5:03.72       53618588 B   ---   --   ---xx   flac  0.4529  WZ 1994-02-07 Track20-fixed.flac
    80:11.63      848809456 B                            0.5013  (20 files)





More information about the bittorrent mailing list