[bittorrent] Scott Holcomb Solo Acoustic Cape House Restaurant Brooklyn, New York 4/27/2017 (Schoeps CCM4V'S FOB)

Automated Mailer noreply-bt.e at etree.org
Fri Apr 28 13:54:30 UTC 2017


Band:           Other
Torrent Name:   Scott Holcomb Solo Acoustic Cape House Restaurant Brooklyn, New York 4/27/2017 (Schoeps CCM4V'S FOB)
Uploaded by:    zmanatl
DB Link:        
Details:        http://bt.etree.org/details.php?id=592632

Contact the seeder at http://db.etree.org/zmanatl

If the link to this show does not work, it was probably removed for
being non-trade-friendly.

Description / text file:
-------------------------
Scott Holcomb Solo Acoustic
Cape House Restaurant
Brooklyn, New York
4/27/2017

Source: Schoeps CCM4V's>Lunatec V2>Benchmark AD2K>
Sound Devices 722 (24/44)
FOB/DFC/KFC/ZFC/AARP 10' From Stage, 6 1/2' High
DSP: Sound Devices 722>Sound Forge 10.0>CD Wave>flac(16)
ID3 Tagged In Foobar 2000
Recorded By: Z-Man
Seeded By: Z-Man 

Disc I 

01 Someone New To Call On
02 Bakersfield
03 Don't Take Me For Granted
04 Outfit
05 Sonic Reducer 

* Show Notes: Scott was asked to play a solo acoustic set.I did not know what time it was to start. 
After a long work day, I made it only to fin Scott began his set 15 minutes prior to my arrival. so,
here is what I was able to capture.

scott2017-04-27d01t01.flac:e05ca71ae711c6e5d5b324da657db39a
scott2017-04-27d01t02.flac:f35ac7b29128e8322a4ebd0412c54890
scott2017-04-27d01t03.flac:32092b960c767e214647c811aaba410d
scott2017-04-27d01t04.flac:fceade1bb516babb10f77742de1ee566
scott2017-04-27d01t05.flac:dcbd37969ef264ee8b1857379cf83bd3

length     expanded size    cdr  WAVE problems  fmt   ratio  filename
     2:27.50       26048444 B   ---   --   ---xx   flac  0.4742  scott2017-04-27d01t01.flac
     3:38.68       38615180 B   ---   --   ---xx   flac  0.4544  scott2017-04-27d01t02.flac
     3:52.66       41080076 B   ---   --   ---xx   flac  0.5446  scott2017-04-27d01t03.flac
     5:15.11       55591916 B   ---   --   ---xx   flac  0.4836  scott2017-04-27d01t04.flac
     3:49.55       40525004 B   ---   --   ---xx   flac  0.5484  scott2017-04-27d01t05.flac
    19:04.25      201860620 B                            0.5022  (5 files)

















More information about the bittorrent mailing list