[bittorrent] 41 Players Bar Chord Brooklyn, New York 4/24/2017 (Schoeps CCM4V'S FOB)

Automated Mailer noreply-bt.e at etree.org
Fri Apr 28 08:07:27 UTC 2017


Band:           Other
Torrent Name:   41 Players Bar Chord Brooklyn, New York 4/24/2017 (Schoeps CCM4V'S FOB)
Uploaded by:    zmanatl
DB Link:        
Details:        http://bt.etree.org/details.php?id=592630

Contact the seeder at http://db.etree.org/zmanatl

If the link to this show does not work, it was probably removed for
being non-trade-friendly.

Description / text file:
-------------------------
41 Players
Bar Chord
Brooklyn, New York
4/24/2017

Source: Schoeps CCM4V's>Lunatec V2>Benchmark AD2K>
Sound Devices 722 (24/44)
FOB/DFC/KFC/ZFC/AARP Stage Lip, 8' High
DSP: Sound Devices 722>Sound Forge 10.0>CD Wave>flac(16)
ID3 Tagged In Foobar 2000
Recorded By: Z-Man
Seeded By: Z-Man 

Disc I 1st Set

01 ?
02 Look-Ka Py Py
03 ?
04 ?
05 Get Out My Life Woman
06 Live Wire

Disc II 2nd Set 

01 Lady Maonna 
02 Big Chief
03 *#Java
04 #?
05 @?
06 Shaky Ground
07 Me Minus You Equals Lonliness
08 Cakewalk Into Town 

Disc III 3rd Set 

01 ?
02 People Say
03 ?

* With Benny Hill Theme 
# With Bruce Flowers On Keyboards
@ With Ann Klein On Guitar

John Deley - Keyboards And Vocals
Jamie McLean - Guitar An Vocals
? - Bass
Craig Dreyer - Saxophone, Percussion, And Vocals
Rodney Howard - Drums 

41players2017-04-24d01t01.flac:7fb442010c477d639acfd98785a84766
41players2017-04-24d01t02.flac:792f93ad2c7874a4fe2f4a7fac7f21cc
41players2017-04-24d01t03.flac:24b0fa7e6fbc573baebdded1e09670a4
41players2017-04-24d01t04.flac:d963200c24d9d32defe03e8d5ea584e0
41players2017-04-24d01t05.flac:7e0ced91a5719785cffcd3ca57d0fa3b
41players2017-04-24d01t06.flac:7c73381a9b87c83ee0385179add0fcd7
41players2017-04-24d02t01.flac:698a6e975be088ea6b9d4ed5efe984ae
41players2017-04-24d02t02.flac:743615d2e40ead98f338fffb229ae738
41players2017-04-24d02t03.flac:b125b48092e1d4be91d97dd24783ee25
41players2017-04-24d02t04.flac:de952f92f38745cac6340a701951c425
41players2017-04-24d02t05.flac:89e30baa9ec35b6e932de603da44de72
41players2017-04-24d02t06.flac:e1adcd33516ced534c389ccbc54b7a90
41players2017-04-24d02t07.flac:865baa9616d04223badc44a08e724947
41players2017-04-24d02t08.flac:4a86331213ba13e33ceb0e8881525cf3
41players2017-04-24d03t01.flac:f003ca3747d95675b5004e3dca01ed4d
41players2017-04-24d03t02.flac:34a35becb52bdf4435e5abaecf64fcb9
41players2017-04-24d03t03.flac:cb9d1407d5fc8df7d2ac367dfb6e62ba

length     expanded size    cdr  WAVE problems  fmt   ratio  filename
     4:31.11       47830316 B   ---   --   ---xx   flac  0.5317  41players2017-04-24d01t01.flac
     7:05.52       75092348 B   ---   --   ---xx   flac  0.5637  41players2017-04-24d01t02.flac
     7:17.71       77253836 B   ---   --   ---xx   flac  0.4958  41players2017-04-24d01t03.flac
     5:15.21       55615436 B   ---   --   ---xx   flac  0.5119  41players2017-04-24d01t04.flac
     7:56.60       84107564 B   ---   --   ---xx   flac  0.5101  41players2017-04-24d01t05.flac
     7:49.20       82778684 B   ---   --   ---xx   flac  0.5498  41players2017-04-24d01t06.flac
     5:51.52       62038748 B   ---   --   ---xx   flac  0.5176  41players2017-04-24d02t01.flac
     9:01.67       95590028 B   ---   --   ---xx   flac  0.5099  41players2017-04-24d02t02.flac
     9:49.13      103930220 B   ---   --   ---xx   flac  0.5132  41players2017-04-24d02t03.flac
     7:36.12       80466668 B   ---   --   ---xx   flac  0.4972  41players2017-04-24d02t04.flac
     6:36.31       69927356 B   ---   --   ---xx   flac  0.5362  41players2017-04-24d02t05.flac
     5:49.72       61732988 B   ---   --   ---xx   flac  0.5139  41players2017-04-24d02t06.flac
     4:16.16       45196076 B   ---   --   ---xx   flac  0.3368  41players2017-04-24d02t07.flac
     7:50.11       82933916 B   ---   --   ---xx   flac  0.5102  41players2017-04-24d02t08.flac
     7:53.65       83590124 B   ---   --   ---xx   flac  0.4751  41players2017-04-24d03t01.flac
     8:36.18       91064780 B   ---   --   ---xx   flac  0.5345  41players2017-04-24d03t02.flac
     6:06.15       64597724 B   ---   --   ---xx   flac  0.5455  41players2017-04-24d03t03.flac
   119:24.07     1263746812 B                            0.5124  (17 files)
























More information about the bittorrent mailing list