[bittorrent] gd1988-03-12.bammies.fm.138189.flac1644

Automated Mailer noreply-bt.e at etree.org
Thu Apr 27 01:03:41 UTC 2017


Band:           Grateful Dead
Torrent Name:   gd1988-03-12.bammies.fm.138189.flac1644
Uploaded by:    nfagdtrfb
DB Link:        
Details:        http://bt.etree.org/details.php?id=592619

Contact the seeder at http://db.etree.org/nfagdtrfb

If the link to this show does not work, it was probably removed for
being non-trade-friendly.

Description / text file:
-------------------------
GRATEFUL DEAD & FRIENDS
11th Bay Area Music Awards - The Bammies
Civic Auditorium
San Francisco CA
03-12-1988

01 Best Bassist Award - Phil Lesh
02 Best Album Award - In the Dark
03 Best Drummer Award - Mickey Hart & Bill Kreutzmann
04 Best Guitarist Award - Jerry Garcia
05 Musician of the Year Award - Jerry Garcia
06 Mickey Hart & Friends Jam Session
07 Good Morning Little Schoolgirl (1)
08 Turn On Your Lovelight (1)
09 announcers & tuning
10 Long Tall Sally (2)

(1) Grateful Dead, Huey Lewis & the News
(2) Grateful Dead, Huey Lewis & the News, Merl Saunders, John Fogerty

Source: KFOG-FM > Cassette (compilation tape of GD-related highlights, 
marked 3rd Gen) kindly provided from the collection of DL.

Transfer: TDK SA-90 > Nakamichi CR-5A > Edirol FA-66 > Wavelab 2448 > 
R8Brain > CD-Wave > TLH > FLAC 1644 tagged. Transfer by Andrew F. 04/2017

    length     expanded size    cdr  WAVE problems  fmt   ratio  filename
     1:53.25       19992044 B   ---   --   ---xx   flac  0.6187  gd1988-03-12t01.flac
     3:29.52       36989948 B   ---   --   ---xx   flac  0.6265  gd1988-03-12t02.flac
     2:00.00       21168044 B   ---   --   ---xx   flac  0.6171  gd1988-03-12t03.flac
     2:12.72       23454188 B   ---   --   ---xx   flac  0.6284  gd1988-03-12t04.flac
     3:43.00       39337244 B   ---   --   ---xx   flac  0.6205  gd1988-03-12t05.flac
    15:41.13      166023020 B   ---   --   ---xx   flac  0.7013  gd1988-03-12t06.flac
    10:45.49      113893292 B   ---   --   ---xx   flac  0.7231  gd1988-03-12t07.flac
     8:47.61       93106316 B   ---   --   ---xx   flac  0.7201  gd1988-03-12t08.flac
     3:27.37       36601868 B   ---   --   ---xx   flac  0.6080  gd1988-03-12t09.flac
     4:36.40       48780524 B   ---   --   ---xx   flac  0.7184  gd1988-03-12t10.flac
    56:37.49      599346488 B                            0.6856  (10 files)

No errors occured.




More information about the bittorrent mailing list