[bittorrent] Seth Rivers Solo Acoustic Sweetwater 420 Festival Aftershow Smith's Olde Bar Atlanta, Georgia 4/22/2017 (Schoeps CCM4V'S FOB)

Automated Mailer noreply-bt.e at etree.org
Wed Apr 26 18:14:55 UTC 2017


Band:           Other
Torrent Name:   Seth Rivers Solo Acoustic Sweetwater 420 Festival Aftershow Smith's Olde Bar Atlanta, Georgia 4/22/2017 (Schoeps CCM4V'S FOB)
Uploaded by:    zmanatl
DB Link:        
Details:        http://bt.etree.org/details.php?id=592613

Contact the seeder at http://db.etree.org/zmanatl

If the link to this show does not work, it was probably removed for
being non-trade-friendly.

Description / text file:
-------------------------
Seth Rivers Solo Acoustic
Smith's Olde Bar
Atlanta, Georgia
4/22/2017

Source: Schoeps CCM4V's>Lunatec V2>Benchmark AD2K>
Sound Devices 722 (24/44)
FOB/DFC/KFC/ZFC/AARP 19' From Stage, 7' High
DSP: Sound Devices 722>Sound Forge 10.0>CD Wave>flac(16)
ID3 Tagged In Foobar 2000
Recorded By: Z-Man
Seeded By: Z-Man 

Disc I 

01 ?
02 ?
03 ?

* Show Notes: Left Sweetwater 420 after the last note of Widespread Panic. Got through the crowd,
drove over to Smith;s, went in and set up, then hit record 36 minutes after Panic. Unfortunately, 
Seth had already starte before Dany and I got there. So, this is all I haveto share. Better than 
nothing. 

seth2017-04-22d01t01.flac:bff8329dbfafa42144ce0bfde6895069
seth2017-04-22d01t02.flac:7cad448c069344d7c4e3c9fcbe2bd466
seth2017-04-22d01t03.flac:5cf4336594d0b75d44c13343510e311b

length     expanded size    cdr  WAVE problems  fmt   ratio  filename
     5:06.66       54133676 B   ---   --   ---xx   flac  0.3856  seth2017-04-22d01t01.flac
     6:02.50       63974444 B   ---   --   ---xx   flac  0.3875  seth2017-04-22d01t02.flac
     5:16.01       55744796 B   ---   --   ---xx   flac  0.3916  seth2017-04-22d01t03.flac
    16:25.42      173852916 B                            0.3882  (3 files)















More information about the bittorrent mailing list