[bittorrent] Sam Holt Band Sweetwater 420 Festival Aftershow Smith's Olde Bar Atlanta, Georgia 4/22/2017 (Schoeps CCM4V'S FOB)

Automated Mailer noreply-bt.e at etree.org
Wed Apr 26 15:15:16 UTC 2017


Band:           Sam Holt Band
Torrent Name:   Sam Holt Band Sweetwater 420 Festival Aftershow Smith's Olde Bar Atlanta, Georgia 4/22/2017 (Schoeps CCM4V'S FOB)
Uploaded by:    zmanatl
DB Link:        
Details:        http://bt.etree.org/details.php?id=592606

Contact the seeder at http://db.etree.org/zmanatl

If the link to this show does not work, it was probably removed for
being non-trade-friendly.

Description / text file:
-------------------------
Sam Holt Band
Smith's Olde Bar
Atlanta, Georgia
4/22/2017

Source: Schoeps CCM4V's>Lunatec V2>Benchmark AD2K>
Sound Devices 722 (24/44)
FOB/DFC/KFC/ZFC/AARP 19' From Stage, 7' High
DSP: Sound Devices 722>Sound Forge 10.0>CD Wave>flac(16)
ID3 Tagged In Foobar 2000
Recorded By: Z-Man
Seeded By: Z-Man 

Disc I 

01 Ride Me High Jam >
02 Burned Faceless >
03 Happy >
04 Check It Out  
05 Disco >
06 Down 
07 Eleventeen >
08 It Was You 
09 Solitude 

Disc II 

01 Analyze >
02 ? >
03 Carnac >
04 Time Is Free >
05 Aunt Avis Jam >
06 E On A G >
07 Waker >
08 Jam >
09 Raise The Roof 
10 No Cryin' Now
Encore:
11 Give It Up For Sam/Tuning
12 The Earth Will Swallow You >
13 Don't Tell The Band >
14 Vacation 

sam2017-04-22d01t01.flac:73f0098150a039c73e85226d45f24921
sam2017-04-22d01t02.flac:86430c384c888587469fa5dcf3ac619f
sam2017-04-22d01t03.flac:04dc83931f2b3e785f73e6b5d36f7aad
sam2017-04-22d01t04.flac:2a8a5b42f7725fdb376eb886148be74d
sam2017-04-22d01t05.flac:cae49f6f03a69018eaab46f090f3e0d0
sam2017-04-22d01t06.flac:cd6a1658ba539509f002bb5dc43af88b
sam2017-04-22d01t07.flac:5155c7227c99240dec75d1fe612edbeb
sam2017-04-22d01t08.flac:4f910358138a6484083069a6df92876e
sam2017-04-22d01t09.flac:c02a6daac55266145d4df3f8870dfc9b
sam2017-04-22d02t01.flac:7e94180857b50e6dd0d6bd5815d655a0
sam2017-04-22d02t02.flac:84dbe21a1152387f7991bb975c548c92
sam2017-04-22d02t03.flac:d7eca0fddd38b6e2045d03548695bfcb
sam2017-04-22d02t04.flac:5777e281f05a94311b77fba5b9e6bd42
sam2017-04-22d02t05.flac:e45686430d9fa662907ec3d3fb4e9522
sam2017-04-22d02t06.flac:64db43e4e3ec804a10b335b2fe9208f8
sam2017-04-22d02t07.flac:c011a8a80dda2733bec8f1de0bee7024
sam2017-04-22d02t08.flac:5a68ea7cf85da0f5f7642f97fc959dbb
sam2017-04-22d02t09.flac:4665d42ef13dde94d38020ab1b0945cb
sam2017-04-22d02t10.flac:0ab49384df88fb6915f5f29a2682de10
sam2017-04-22d02t11.flac:58fefc7f94d352fe5b2d002a193e196e
sam2017-04-22d02t12.flac:c6d97a0c72e77034d92f22f525bee174
sam2017-04-22d02t13.flac:aa75a9c6b057079661a7e7d4fe4b5731
sam2017-04-22d02t14.flac:25e5b8c8cca92a91202f33acd65c816f

length     expanded size    cdr  WAVE problems  fmt   ratio  filename
     9:21.58       99096860 B   ---   --   ---xx   flac  0.4485  sam2017-04-22d01t01.flac
     3:40.49       38923292 B   ---   --   ---xx   flac  0.4935  sam2017-04-22d01t02.flac
     8:18.33       87924860 B   ---   --   ---xx   flac  0.4555  sam2017-04-22d01t03.flac
     8:32.04       90326252 B   ---   --   ---xx   flac  0.4180  sam2017-04-22d01t04.flac
     5:04.56       53757356 B   ---   --   ---xx   flac  0.4824  sam2017-04-22d01t05.flac
     6:30.30       68866604 B   ---   --   ---xx   flac  0.4472  sam2017-04-22d01t06.flac
     4:02.40       42782924 B   ---   --   ---xx   flac  0.4525  sam2017-04-22d01t07.flac
     3:45.73       39861740 B   ---   --   ---xx   flac  0.4636  sam2017-04-22d01t08.flac
     7:02.30       74511404 B   ---   --   ---xx   flac  0.4957  sam2017-04-22d01t09.flac
     5:45.34       60938012 B   ---   --   ---xx   flac  0.4639  sam2017-04-22d02t01.flac
     5:49.17       61603628 B   ---   --   ---xx   flac  0.4127  sam2017-04-22d02t02.flac
     5:14.71       55556636 B   ---   --   ---xx   flac  0.4802  sam2017-04-22d02t03.flac
     5:40.22       60027788 B   ---   --   ---xx   flac  0.4444  sam2017-04-22d02t04.flac
     1:45.39       18613772 B   ---   --   ---xx   flac  0.3704  sam2017-04-22d02t05.flac
     5:22.20       56847884 B   ---   --   ---xx   flac  0.4455  sam2017-04-22d02t06.flac
     6:33.57       69459308 B   ---   --   ---xx   flac  0.4811  sam2017-04-22d02t07.flac
     3:28.23       36745340 B   ---   --   ---xx   flac  0.3564  sam2017-04-22d02t08.flac
     9:13.19       97593932 B   ---   --   ---xx   flac  0.4400  sam2017-04-22d02t09.flac
     4:50.30       51226604 B   ---   --   ---xx   flac  0.4717  sam2017-04-22d02t10.flac
     2:04.46       21981836 B   ---   --   ---xx   flac  0.3424  sam2017-04-22d02t11.flac
     5:05.25       53860844 B   ---   --   ---xx   flac  0.4155  sam2017-04-22d02t12.flac
     4:37.58       48999260 B   ---   --   ---xx   flac  0.4477  sam2017-04-22d02t13.flac
    12:05.23      127944140 B   ---   --   ---xx   flac  0.4489  sam2017-04-22d02t14.flac
   133:55.32     1417450276 B                            0.4481  (23 files)
















More information about the bittorrent mailing list