[bittorrent] gd1981-10-02.Sony ECM-99.williams.sirmick.138170.sbeok.flac24-96 E

Automated Mailer noreply-bt.e at etree.org
Tue Apr 25 07:42:52 UTC 2017


Band:           Grateful Dead
Torrent Name:   gd1981-10-02.Sony ECM-99.williams.sirmick.138170.sbeok.flac24-96 E
Uploaded by:     SIRMick
DB Link:        
Details:        http://bt.etree.org/details.php?id=592588

Contact the seeder at http://db.etree.org/ SIRMick

If the link to this show does not work, it was probably removed for
being non-trade-friendly.

Description / text file:
-------------------------
Grateful Dead
Rainbow Theatre,
London, England
10/02/1981


Source: Audience recording > Sony ECM-99 > JVC CD-1635 > Master Cassettes (C90 Maxell UD XLII x 2)
              Taped by Peter Williams from the balcony,  about halfway between centre and right wall
Transfer: Cassette > Nakamichi CD1 > Tascam DR-100mkIII > wav 24/176.4
Lineage: wav 24/176.4 > Adobe Audition CC > iZotope RX4 Advanced > iZotope 5 Advanced > iZotope RX4 Advanced >
                wav 24/96 >  > CD Wave > TLH > Flac 24



Set I

01   tuning
02   Minglewood Blues
03   Sugaree >
04   C C Rider
05   crowd/tuung
06   Cumberland Blues
07   Cassidy
08   Dire Wolf
09   Mama Tried >
10   Mexicali Blues
11   Teddy Bear's Picnic tuning
12   Althea
13   Lost Sailor >
14   Saint Of Circumstance


Set II

01   crowd/tuning
02   Playin' In The Band >
03   Shakedown Street >
04   Bertha >
05   Jam >
06   Drums >
07   Space >
08   Spanish Jam >
09   Truckin' >
10   Black Peter >
11   Sugar Magnolia

encore

12   U.S. Blues




Notes:

- The following patches have been made using shnid 80289 

  Drums - 7:41 - 9:03 
  Sugar Magnolia - 5:17 - 8:20
  U.S. Blues - first 2 seconds, 0:58 - 2:55

in addition a few tape pauses and several crows sections for continuity.

- I made a few level adjustments.

   

Thanks to Peter Williams for lending me his masters.



transferred, edited and mastered
SIRMick
April 2017


shntool output:

    length     expanded size    cdr  WAVE problems  fmt   ratio  filename
     0:35.307      20336684 B   cxx   --   ---xx   flac  0.5917  gd1981-10-02s1t01.flac
     7:13.453     249669164 B   cxx   --   ---xx   flac  0.6074  gd1981-10-02s1t02.flac
    10:47.187     372779564 B   cxx   --   ---xx   flac  0.6028  gd1981-10-02s1t03.flac
     7:53.387     272670764 B   cxx   --   ---xx   flac  0.6017  gd1981-10-02s1t04.flac
     1:14.013      42631724 B   cxx   --   ---xx   flac  0.5431  gd1981-10-02s1t05.flac
     5:33.307     191984684 B   cxx   --   ---xx   flac  0.5972  gd1981-10-02s1t06.flac
     5:43.827     198044204 B   cxx   --   ---xx   flac  0.6003  gd1981-10-02s1t07.flac
     3:21.587     116113964 B   cxx   --   ---xx   flac  0.6078  gd1981-10-02s1t08.flac
     2:34.213      88826924 B   cxx   --   ---xx   flac  0.6100  gd1981-10-02s1t09.flac
     5:10.320     178744364 B   cxx   --   ---xx   flac  0.6065  gd1981-10-02s1t10.flac
     1:09.347      39943724 B   cxx   --   ---xx   flac  0.5471  gd1981-10-02s1t11.flac
     9:00.133     311116844 B   cxx   --   ---xx   flac  0.5959  gd1981-10-02s1t12.flac
     7:22.427     254837804 B   cxx   --   ---xx   flac  0.5674  gd1981-10-02s1t13.flac
     7:26.187     257003564 B   cxx   --   ---xx   flac  0.6159  gd1981-10-02s1t14.flac
     1:17.373      44567084 B   cxx   --   ---xx   flac  0.6379  gd1981-10-02s2t01.flac
    11:31.960     398569004 B   cxx   --   ---xx   flac  0.6725  gd1981-10-02s2t02.flac
    13:10.427     455285804 B   cxx   --   ---xx   flac  0.6785  gd1981-10-02s2t03.flac
     7:08.827     247004204 B   cxx   --   ---xx   flac  0.6800  gd1981-10-02s2t04.flac
     4:40.307     161456684 B   cxx   --   ---xx   flac  0.6928  gd1981-10-02s2t05.flac
     9:19.040     322007084 B   cxx   --   ---xx   flac  0.6597  gd1981-10-02s2t06.flac
     5:09.680     178375724 B   cxx   --   ---xx   flac  0.6403  gd1981-10-02s2t07.flac
     4:40.000     161280044 B   cxx   --   ---xx   flac  0.6626  gd1981-10-02s2t08.flac
     7:55.933     274137644 B   cxx   --   ---xx   flac  0.6741  gd1981-10-02s2t09.flac
    11:25.333     394752044 B   cxx   --   ---xx   flac  0.6578  gd1981-10-02s2t10.flac
     8:38.347     298567724 B   cxx   --   ---xx   flac  0.6760  gd1981-10-02s2t11.flac
     5:18.893     183682604 B   cxx   --   ---xx   flac  0.6900  gd1981-10-02s2t12.flac
   165:20.813    5714389624 B                            0.6377  (26 files)





More information about the bittorrent mailing list