[bittorrent] jg1986-01-24.jgjk.aud.138168.flac1644

Automated Mailer noreply-bt.e at etree.org
Sun Apr 23 19:41:36 UTC 2017


Band:           Garcia
Torrent Name:   jg1986-01-24.jgjk.aud.138168.flac1644
Uploaded by:    nfagdtrfb
DB Link:        
Details:        http://bt.etree.org/details.php?id=592539

Contact the seeder at http://db.etree.org/nfagdtrfb

If the link to this show does not work, it was probably removed for
being non-trade-friendly.

Description / text file:
-------------------------
JERRY GARCIA & JOHN KAHN
Constitution Hall
Washington DC
01-24-1986

s1t01 Deep Elem Blues
s1t02 Friend of the Devil
s1t03 When I Paint My Masterpiece
s1t04 Little Sadie
s1t05 Spike Driver Blues
s1t06 Jackaroe
s1t07 Run for the Roses

s2t01 Dire Wolf
s2t02 To Lay Me Down
s2t03 I've Been All Around this World
s2t04 Birdsong
s2t05 Ripple/ (cuts at "there is a fountain")
s2t06 Encore: Goodnight Irene

AUD (marked 2nd Gen) kindly provided by wk & http://jgmf.blogspot.com/ 

Transfer: TDK SA90 > Nakamichi CR-5A > Edirol FA-66 > Wavelab 2448 > 
R8Brain > CD-Wave > TLH > FLAC 1644 tagged. Transfer by Andrew F. 04/2017

    length     expanded size    cdr  WAVE problems  fmt   ratio  filename
     5:46.57       61168508 B   ---   --   ---xx   flac  0.6197  jgjk1986-01-24s1t01.flac
     6:27.54       68393852 B   ---   --   ---xx   flac  0.6201  jgjk1986-01-24s1t02.flac
     7:01.52       74386748 B   ---   --   ---xx   flac  0.6315  jgjk1986-01-24s1t03.flac
     4:19.26       45748796 B   ---   --   ---xx   flac  0.6187  jgjk1986-01-24s1t04.flac
     4:25.46       46854236 B   ---   --   ---xx   flac  0.6117  jgjk1986-01-24s1t05.flac
     4:42.08       49763660 B   ---   --   ---xx   flac  0.6301  jgjk1986-01-24s1t06.flac
     4:29.65       47604524 B   ---   --   ---xx   flac  0.6305  jgjk1986-01-24s1t07.flac
     3:38.21       38504636 B   ---   --   ---xx   flac  0.6136  jgjk1986-01-24s2t01.flac
     8:06.36       85815116 B   ---   --   ---xx   flac  0.6082  jgjk1986-01-24s2t02.flac
     6:19.60       66996764 B   ---   --   ---xx   flac  0.6139  jgjk1986-01-24s2t03.flac
    10:51.28      114902300 B   ---   --   ---xx   flac  0.6138  jgjk1986-01-24s2t04.flac
     2:11.66       23263676 B   ---   --   ---xx   flac  0.6187  jgjk1986-01-24s2t05.flac
     7:44.53       81974300 B   ---   --   ---xx   flac  0.6091  jgjk1986-01-24s2t06.flac
    76:05.47      805377116 B                            0.6176  (13 files)

No errors occured.




More information about the bittorrent mailing list