[bittorrent] gd1971-04-17.138033.sbd.unknown.flac1648

Automated Mailer noreply-bt.e at etree.org
Sun Apr 23 02:35:22 UTC 2017


Band:           Grateful Dead
Torrent Name:   gd1971-04-17.138033.sbd.unknown.flac1648
Uploaded by:    greendude
DB Link:        
Details:        http://bt.etree.org/details.php?id=592522

Contact the seeder at http://db.etree.org/greendude

If the link to this show does not work, it was probably removed for
being non-trade-friendly.

Description / text file:
-------------------------
Grateful Dead
Saturday, April 17, 1971
Dillon Gym, Princeton University
Princeton, New Jersey

SBD Master Reel
Transferred to 16 48 WAV February 2017

Set One
01 Truckin'
02 Big Railroad Blues
03 Big Boss Man
04 Bird Song
05 Playing In The Band
06 Hard To Handle
07 Loser
08 Mama Tried
09 Casey Jones
10 tuning - Sugar Magnolia (aborted due to technical problems)
11 Sugar Magnolia

Set Two
01 Good Lovin'->
02 Drums->
03 Good Lovin'
04 Me And Bobby McGee
05 Deal
06 Beat It On Down The Line
07 I'm A King Bee
08 Bertha
09 Sing Me Back Home
10 Goin' Down The Road Feeling Bad->
11 jam->
12 Turn On Your Love Light

notes:
This was originally recorded with analog equipment on a 7 inch, 7.5 i.p.s half-track master reel. We have attempted to preserve, as closely as possible, the sound of the original recording and performance while considering speed, channels and phase. Because of it's resolution, it may reveal some limitations of the source tape.

"Looking at stage: Garcia on right. Pig's organ was to left of drums and right of Lesh. When he sang he was stage center (left of Garcia). Also, the NRPS added percussion behind the band IIRC standing behind the band (wood blocks etc...) I was sitting on the stage, about 3 feet in front of Lesh's mic. That's my memory."  Matt Vernon

Recollection by Matt Vernon March 19,2017:

“April 17, 1971 was the first time I saw the Grateful Dead perform live. I was a junior in high school and the Grateful Dead were my most favored band. I had listened to their albums countless number of times.

There is a long essay in the Taper’s Compendium which agrees with much of what I remember though given the concert was 46 years ago my memories may have become distorted by the passage of time.

The weather was a perfect spring day on the Princeton campus. The Princeton gym is not large with retractable bleacher seats on the sides and folding chairs set up on the floor in front of the stage. The stage was about 3 feet high set up toward one end.

We were early to arrive around 5 pm and walked in to a basically empty gym and sat in the first row of folding chairs. There was maybe a 15 feet gap between the 1st row of chairs and the stage. This was the era when the speaker screens were tie-dyed and I had time to look and walk around and observe how the stage was set up.

The New Rider’s opened with Garcia on pedal steel and Spencer Dryden (Jefferson Airplane) on drums. When the NRPS set finished I left my 1st row seat and went to the front of the stage in front of what would be Phil Lesh’s position.

As the intermission between NRPS and the first Dead set neared its end the area in front of the stage and the 1st row of chairs was now crowded with people. I took the opportunity to hoist myself up and sit on the front edge of the stage with my back against the left side PA stack. I would remain here for the remainder of the show. At this time there was not the formal separation of the band and audience that would exist in later years. You could see many people backstage including some of my friends.

The location was perfect. First, I have always been a “bass” person so being a few feet in front of Lesh’s microphone meant I was literally in the Philzone. The other upside was Garcia would angle himself so it seemed he was looking directly at me. This was because he would be looking at Phil or when Pigpen was singing center stage I was in Garcia’s line of sight.

I won’t review the music which you can hear in near perfect format on this source. But will make a few comments on the aspects of the performance which can’t come across on tape. First, during the show it was clear to me how Pigpen heavy show it was, as the songs rotated with Bob, Jerry and Pigpen doing vocals. Also, members of the NRPS stood behind Bill and played various hand percussion instruments.

During the two Pigpen rap songs (Good Lovin’ and Lovelight) I was about 10 feet away from Pigpen when he was stage center. Its’ hard to describe Pigpen’s command of the stage (he has a small stature) but my attention was fully concentrated on his way of accenting notes bringing the mic near his mouth and using his body and hands to communicate to the band when he was going into one of his “raps” - when to pause and when to accent his vocals.

Here was where my location turned out to be perfect. For Jerry would rotate to watch Pigpen and accent Pig’s comments with riffs and his own facial expressions - grins and chuckles - and noted above I was in his direct line of sight on the other side of Pigpen.

When it came time for the Bob and Barbara match up in Lovelight they were about 3 feet away.  Pigpen would bend down when talking to them very much the matchmaker.

During the intermission between the 2 Dead sets, Phil gave me a cylindrical paper pint container with beer to drink. By this time it was sufficiently crowded that I couldn’t easily leave my perch and it was now hot inside the gym. Before the start of the 2nd Dead set, a woman threw a note on stage to Phil. Phil picked it up and read it and chuckled then gave it to me.

The note said something like “If you want to come to a place where people like you call Emily” then a phone number.

When the show was over it took a while for the crowd to dissipate so I could leave my perch. On the way out there were large piles of the folding chairs cleared  to make room for dancing and what not in front of the stage.

I also saw the reel-reel tape deck about 30-40 feet in front of the stage - at the time I was wondering if it would be used for a live recording.

Amazing that I can listen to the show this many years later.

originally shared with a few at LL

    length     expanded size    cdr  WAVE problems  fmt   ratio  filename 
    9:13.507     106273324 B   cxx   --   ---xx   flac  0.5462  gd1971-04-17s1t01.flac 
    4:03.560      46763564 B   cxx   --   ---xx   flac  0.5664  gd1971-04-17s1t02.flac 
    5:26.347      62658604 B   cxx   --   ---xx   flac  0.5471  gd1971-04-17s1t03.flac 
    8:09.680      94018604 B   cxx   --   ---xx   flac  0.5316  gd1971-04-17s1t04.flac 
    4:52.467      56153644 B   cxx   --   ---xx   flac  0.5440  gd1971-04-17s1t05.flac 
    8:38.840      99617324 B   cxx   --   ---xx   flac  0.5579  gd1971-04-17s1t06.flac 
    7:11.960      82936364 B   cxx   --   ---xx   flac  0.5325  gd1971-04-17s1t07.flac 
    3:02.413      35023404 B   cxx   --   ---xx   flac  0.5494  gd1971-04-17s1t08.flac 
    5:29.147      63196204 B   cxx   --   ---xx   flac  0.5702  gd1971-04-17s1t09.flac 
    1:23.107      15956524 B   cxx   --   ---xx   flac  0.4944  gd1971-04-17s1t10.flac 
    7:16.067      83724844 B   cxx   --   ---xx   flac  0.5665  gd1971-04-17s1t11.flac 
    2:26.653      28157484 B   cxx   --   ---xx   flac  0.5253  gd1971-04-17s2t01.flac 
    6:15.693      72133164 B   cxx   --   ---xx   flac  0.5195  gd1971-04-17s2t02.flac 
   19:58.760     230161964 B   cxx   --   ---xx   flac  0.5451  gd1971-04-17s2t03.flac 
    6:24.947      73909804 B   cxx   --   ---xx   flac  0.5265  gd1971-04-17s2t04.flac 
    5:20.747      61583404 B   cxx   --   ---xx   flac  0.5431  gd1971-04-17s2t05.flac 
    3:20.627      38520364 B   cxx   --   ---xx   flac  0.5517  gd1971-04-17s2t06.flac 
    7:53.867      90982444 B   cxx   --   ---xx   flac  0.5356  gd1971-04-17s2t07.flac 
    6:14.200      71846444 B   cxx   --   ---xx   flac  0.5549  gd1971-04-17s2t08.flac 
    8:21.920      96368684 B   cxx   --   ---xx   flac  0.5289  gd1971-04-17s2t09.flac 
    6:21.933      73331244 B   cxx   --   ---xx   flac  0.5593  gd1971-04-17s2t10.flac 
    2:22.280      27317804 B   cxx   --   ---xx   flac  0.5184  gd1971-04-17s2t11.flac 
   17:41.872     203879456 B   cxx   --   ---xx   flac  0.5303  gd1971-04-17s2t12.flac 
  157:30.592    1814514664 B                            0.5422  (23 files)




More information about the bittorrent mailing list