[bittorrent] Dirty Heads Sweetwater 420 Festival Centennial Olympic Park Atlanta, Georgia 4/21/2017 (Schoeps CCM4V'S FOB)

Automated Mailer noreply-bt.e at etree.org
Sat Apr 22 14:42:09 UTC 2017


Band:           Other
Torrent Name:   Dirty Heads Sweetwater 420 Festival Centennial Olympic Park Atlanta, Georgia 4/21/2017 (Schoeps CCM4V'S FOB)
Uploaded by:    zmanatl
DB Link:        
Details:        http://bt.etree.org/details.php?id=592515

Contact the seeder at http://db.etree.org/zmanatl

If the link to this show does not work, it was probably removed for
being non-trade-friendly.

Description / text file:
-------------------------
Dirty Heads
420 Sweetwater Festival
Centenial Park
Atlanta, Georgia
4/21/2017

Source: Schoeps CCM4V's>Lunatec V2>Benchmark AD2K>
Sound Devices 722 (24/44)
FOB/DFC/KFC/ZFC/AARP 60' From Stage, 5' High
DSP: Sound Devices 722>Sound Forge 10.0>CD Wave>flac(16)
ID3 Tagged In Foobar 2000
Recorded By: Z-Man
Seeded By: Z-Man 

This Recording Dedicated To My Good Friend Tracy Frank. Get Well Sweet Angel!

Disc I 

01 Check The Level
02 Hip Hop Misfits 
03 Too Cruel 
04 Red Lights
05 Medusa
06 Franco
07 Moon Tower
08 Goonies
09 Spread Too Thin >
10 Lay Me Down
11 Oxygen 
12 That's All I Need
13 Oxy Remix Dance Potty

Show Notes: We got in and made our way to the Main Stage. The band had already started.
Put up our mics and I hit record. We missed probably the first 20 minutes. I know CK was 
bummed that he missed the beginning!

dirty2017-04-21d01t01.flac:05f830133e528ea46c39aadd554bf3a6
dirty2017-04-21d01t02.flac:8274abe7cba3792e9bde229c038d37d8
dirty2017-04-21d01t03.flac:045d5c5b1811c18c26d9392df2663e01
dirty2017-04-21d01t04.flac:aa6513cbd458fa8e2e5426252e656277
dirty2017-04-21d01t05.flac:dea06f1e5166c47fa0509a9da2062997
dirty2017-04-21d01t06.flac:19c592411eafc4425cee6f1c381ef3a1
dirty2017-04-21d01t07.flac:a353045444ef19487c6662391661a80d
dirty2017-04-21d01t08.flac:2fd80435cdb62d7790eb108c052d255b
dirty2017-04-21d01t09.flac:24f6421c62d83ec4148a5268c5f5760d
dirty2017-04-21d01t10.flac:34731ffb48289120e7d7b3b454c657fb
dirty2017-04-21d01t11.flac:447aa40ef81a5c0b1568803dac99732c
dirty2017-04-21d01t12.flac:e5e262d2f11b1ed700711ceef1503a65
dirty2017-04-21d01t13.flac:2d298abc6d0578063bb600e99f83ad3d

 length     expanded size    cdr  WAVE problems  fmt   ratio  filename
     3:56.47       41740988 B   ---   --   ---xx   flac  0.4034  dirty2017-04-21d01t01.flac
     2:43.55       28882604 B   ---   --   ---xx   flac  0.4321  dirty2017-04-21d01t02.flac
     4:08.42       43846028 B   ---   --   ---xx   flac  0.3948  dirty2017-04-21d01t03.flac
     4:04.20       43088684 B   ---   --   ---xx   flac  0.3852  dirty2017-04-21d01t04.flac
     3:27.41       36611276 B   ---   --   ---xx   flac  0.4137  dirty2017-04-21d01t05.flac
     3:29.69       37029932 B   ---   --   ---xx   flac  0.4085  dirty2017-04-21d01t06.flac
     1:42.16       18030476 B   ---   --   ---xx   flac  0.2631  dirty2017-04-21d01t07.flac
     9:06.31       96387356 B   ---   --   ---xx   flac  0.3407  dirty2017-04-21d01t08.flac
     2:13.68       23621180 B   ---   --   ---xx   flac  0.4145  dirty2017-04-21d01t09.flac
     3:24.33       36063260 B   ---   --   ---xx   flac  0.3776  dirty2017-04-21d01t10.flac
     3:56.20       41677484 B   ---   --   ---xx   flac  0.3936  dirty2017-04-21d01t11.flac
     3:12.25       33927644 B   ---   --   ---xx   flac  0.3702  dirty2017-04-21d01t12.flac
     1:47.30       18945404 B   ---   --   ---xx   flac  0.3895  dirty2017-04-21d01t13.flac
    47:13.47      499852316 B                            0.3818  (13 files)



 






More information about the bittorrent mailing list