[bittorrent] Trey Anastasio Band Sweetwater 420 Festival Centennial Olympic Park Atlanta, Georgia 4/21/2017 (Schoeps CCM4V'S FOB)

Automated Mailer noreply-bt.e at etree.org
Sat Apr 22 06:43:33 UTC 2017


Band:           Trey Anastasio
Torrent Name:   Trey Anastasio Band Sweetwater 420 Festival Centennial Olympic Park Atlanta, Georgia 4/21/2017 (Schoeps CCM4V'S FOB)
Uploaded by:    zmanatl
DB Link:        
Details:        http://bt.etree.org/details.php?id=592509

Contact the seeder at http://db.etree.org/zmanatl

If the link to this show does not work, it was probably removed for
being non-trade-friendly.

Description / text file:
-------------------------
Trey Anastasio Band
420 Sweetwater Festival
Centenial Park
Atlanta, Georgia
4/21/2017

Source: Schoeps CCM4V's>Lunatec V2>Benchmark AD2K>
Sound Devices 722 (24/44)
FOB/DFC/KFC/ZFC/AARP 35' From Stage, 6' High
DSP: Sound Devices 722>Sound Forge 10.0>CD Wave>flac(16)
ID3 Tagged In Foobar 2000
Recorded By: Z-Man
Seeded By: Z-Man 

Disc I 

01 Sand 
02 Magilla
03 Cayman Review
04 Mozambique
05 Gotta Jibboo
06 1977
07 Tuesday
08 Money, Love, And Change
09 Small Axe
10 Sweet and Dandy
11 Valentine
12 First Tube

Disc II 

01 Sometime After Sunset
02 Curlew's Call
03 Everything's Right >
04 Simple Twist Up Dave
05 49 Bye-Byes
06 Alaska

Disc III 2nd Set Con't 

01 In Rounds
02 Alive Again
03 Clint Eastwood > 
04 Mr. Completely >
05 Drum Solo >
06 Mr. Completely >
07 Dazed and Confused
Encore:
08 The Parting Glass
09 Push On Til the Day

Trey Anastasio - Guitar And Vocals
Tony Markellis - Bass
Natalie Cressman - Trombone, Percussion, Keyboards, And Vocals
Jennifer Hartswick - Trumpet, Percussion, And Vocals
Ray Paczkowski - Keyboards
Russ Lawton - Drums
James Casey - Saxophone, Percussion, And Vocals
Cyro Baptista - Percussion And Vocals

trey2017-04-21d01t01.flac:cc5427f2d7ab6ffb83a1a5a46a1c27b0
trey2017-04-21d01t02.flac:27210d433d12d2e0b20874f2999b39df
trey2017-04-21d01t03.flac:35beb6c552043535351a37633b6981df
trey2017-04-21d01t04.flac:c2df8d80b1ede719ceebbe8cb91e301a
trey2017-04-21d01t05.flac:45ed456222b951152970ee7e8e78a647
trey2017-04-21d01t06.flac:b8c97999287687da0567f3da9131ef93
trey2017-04-21d01t07.flac:d387e488f9dee7ba9e89a423c8f4256c
trey2017-04-21d01t08.flac:be35489e4f40ed861d468348d05803e7
trey2017-04-21d01t09.flac:e995ec0995772c5cdc758e1f3ffe3b74
trey2017-04-21d01t10.flac:2c3c9a595d433b0960ade4cd1642c895
trey2017-04-21d01t11.flac:03081ae425cf69e76c943ec6ef8a9ebb
trey2017-04-21d01t12.flac:eac1fd77d3f5bda1f797ec13211841d6
trey2017-04-21d02t01.flac:ba75e1c743d5f47064bf41aaea186e12
trey2017-04-21d02t02.flac:7303b531bbe9f7ebd3e8b84d639fc9a1
trey2017-04-21d02t03.flac:b996fbc16f2ded93d16e65e958c9c781
trey2017-04-21d02t04.flac:f0ef11f9905ad7a73d599326288d738d
trey2017-04-21d02t05.flac:76d12bfb55f1c79e910335f22735958a
trey2017-04-21d02t06.flac:6bbcc7007431eb8da07b5c68b537bb0c
trey2017-04-21d03t01.flac:281078dd426fc5fa760a7152a4ea76d0
trey2017-04-21d03t02.flac:b3ff61481c2cf9d7af733fe9617c7356
trey2017-04-21d03t03.flac:d46f000b5def30a8c7b83d811973da03
trey2017-04-21d03t04.flac:03adefbe6bcb4ebbb76e0995941d603f
trey2017-04-21d03t05.flac:bbda85127e89cc763e7cf1964b95f45c
trey2017-04-21d03t06.flac:3199ef17bd61ae76c25bddb3ec194164
trey2017-04-21d03t07.flac:1a31ae812776e57b76dae7abf05e4ff9
trey2017-04-21d03t08.flac:52486537b72dad24d2ed798be884979d
trey2017-04-21d03t09.flac:b75e95f6420424575a0a7f61a64e853e

  length     expanded size    cdr  WAVE problems  fmt   ratio  filename
     9:15.13       97932620 B   ---   --   ---xx   flac  0.4931  trey2017-04-21d01t01.flac
     2:55.48       30982940 B   ---   --   ---xx   flac  0.5182  trey2017-04-21d01t02.flac
     6:34.50       69619244 B   ---   --   ---xx   flac  0.5008  trey2017-04-21d01t03.flac
     3:58.52       42105548 B   ---   --   ---xx   flac  0.4843  trey2017-04-21d01t04.flac
    11:51.38      125509820 B   ---   --   ---xx   flac  0.5002  trey2017-04-21d01t05.flac
     4:03.24       42921692 B   ---   --   ---xx   flac  0.4399  trey2017-04-21d01t06.flac
     5:28.51       57979196 B   ---   --   ---xx   flac  0.5441  trey2017-04-21d01t07.flac
    11:12.08      118559660 B   ---   --   ---xx   flac  0.5064  trey2017-04-21d01t08.flac
     3:18.58       35063660 B   ---   --   ---xx   flac  0.4580  trey2017-04-21d01t09.flac
     2:49.30       29882204 B   ---   --   ---xx   flac  0.4984  trey2017-04-21d01t10.flac
     6:00.62       63649868 B   ---   --   ---xx   flac  0.5177  trey2017-04-21d01t11.flac
     8:28.68       89771180 B   ---   --   ---xx   flac  0.5494  trey2017-04-21d01t12.flac
     5:45.66       61013276 B   ---   --   ---xx   flac  0.5308  trey2017-04-21d02t01.flac
     7:31.18       79598780 B   ---   --   ---xx   flac  0.5085  trey2017-04-21d02t02.flac
     5:19.63       56419820 B   ---   --   ---xx   flac  0.4908  trey2017-04-21d02t03.flac
     9:09.01       96845996 B   ---   --   ---xx   flac  0.5105  trey2017-04-21d02t04.flac
     4:56.46       52322636 B   ---   --   ---xx   flac  0.4986  trey2017-04-21d02t05.flac
     8:42.28       92146700 B   ---   --   ---xx   flac  0.4837  trey2017-04-21d02t06.flac
     6:00.27       63567548 B   ---   --   ---xx   flac  0.5250  trey2017-04-21d03t01.flac
     8:16.01       87496796 B   ---   --   ---xx   flac  0.4980  trey2017-04-21d03t02.flac
     4:15.00       44982044 B   ---   --   ---xx   flac  0.4918  trey2017-04-21d03t03.flac
     9:01.04       95441852 B   ---   --   ---xx   flac  0.5349  trey2017-04-21d03t04.flac
     1:08.02       11999948 B   ---   --   ---xx   flac  0.5079  trey2017-04-21d03t05.flac
     1:09.11       12197516 B   ---   --   ---xx   flac  0.5504  trey2017-04-21d03t06.flac
     7:14.65       76710524 B   ---   --   ---xx   flac  0.5175  trey2017-04-21d03t07.flac
     2:59.45       31681484 B   ---   --   ---xx   flac  0.3614  trey2017-04-21d03t08.flac
     8:45.08       92628860 B   ---   --   ---xx   flac  0.5459  trey2017-04-21d03t09.flac
   166:11.62     1759031412 B                            0.5067  (27 files)












More information about the bittorrent mailing list