[bittorrent] gd1992-03-16.138167.sbd.miller.flac24

Automated Mailer noreply-bt.e at etree.org
Sat Apr 22 03:50:21 UTC 2017


Band:           Grateful Dead
Torrent Name:   gd1992-03-16.138167.sbd.miller.flac24
Uploaded by:    greendude
DB Link:        
Details:        http://bt.etree.org/details.php?id=592506

Contact the seeder at http://db.etree.org/greendude

If the link to this show does not work, it was probably removed for
being non-trade-friendly.

Description / text file:
-------------------------
Grateful Dead - March 16, 1992
The Spectrum - Philadelphia, PA

Recording Info:
SBD > Cassette Master (TDK SA-X100/Tascam Deck)

Transfer Info:
Cassette Master (Nakamichi CR-7A) > Tascam DA-3000 (DSF 1-bit/5.8 MHz) >
KORG AudioGate 4 > Adobe Audition CC 2015 > Samplitude Pro X3 Suite > FLAC/24
(1 Disc FLAC)

All Transfers and Mastering By Charlie Miller
charliemiller87 at earthlink.net
March 20, 2017

Set 1:
01 - Let The Good Times Roll
02 - Feel Like A Stranger
03 - Friend Of The Devil
04 - C.C. Rider >
05 - It Takes A Lot To Laugh, It Takes A Train To Cry
06 - Black Throated Wind
07 - Ramble On Rose
08 - Let It Grow

Set 2:
09 - Corrina >
10 - Scarlet Begonias >
11 - Fire On The Mountain >
12 - Estimated Prophet >
13 - Drums >
14 - Space >
15 - All Along The Watchtower >
16 - Morning Dew

Encore:
17 - Encore Break
18 - Johnny B. Goode


SHNTOOL OUTPUT:
    length     expanded size    cdr  WAVE problems  fmt   ratio  filename
     3:50.264     132632270 B   cxx   --   ---xx   flac  0.6589  01 Let The Good Times Roll.flac
    10:05.589     348819488 B   cxx   --   ---xx   flac  0.6418  02 Feel Like A Stranger.flac
     9:11.693     317775104 B   cxx   --   ---xx   flac  0.6437  03 Friend Of The Devil.flac
     5:52.223     202880690 B   cxx   --   ---xx   flac  0.6491  04 CC Rider.flac
     6:56.842     240100844 B   cxx   --   ---xx   flac  0.6341  05 It Takes A Lot To Laugh, It Takes A Train To Cry.flac
     6:29.709     224472452 B   cxx   --   ---xx   flac  0.6496  06 Black Throated Wind.flac
     7:45.332     268031504 B   cxx   --   ---xx   flac  0.6585  07 Ramble On Rose.flac
    13:26.743     464684120 B   cxx   --   ---xx   flac  0.6556  08 Let It Grow.flac
     9:52.847     341479862 B   cxx   --   ---xx   flac  0.6536  09 Corrina.flac
    10:57.837     378913940 B   cxx   --   ---xx   flac  0.6556  10 Scarlet Begonias.flac
    11:00.923     380691920 B   cxx   --   ---xx   flac  0.6464  11 Fire On The Mountain.flac
    12:37.671     436418492 B   cxx   --   ---xx   flac  0.6481  12 Estimated Prophet.flac
     6:14.425     215668994 B   cxx   --   ---xx   flac  0.6294  13 Drums.flac
    20:54.093     722357630 B   cxx   --   ---xx   flac  0.6362  14 Space.flac
     9:37.921     332882564 B   cxx   --   ---xx   flac  0.6575  15 All Along The Watchtower.flac
    11:09.036     385364606 B   cxx   --   ---xx   flac  0.6477  16 Morning Dew.flac
     0:54.039      31126244 B   cxx   --   ---xx   flac  0.6013  17 Encore Break.flac
     5:09.142     178065758 B   cxx   --   ---xx   flac  0.6688  18 Johnny B Goode.flac
   162:06.329    5602366482 B                            0.6477  (18 files)




More information about the bittorrent mailing list