[bittorrent] gd1987-03-26.138166.sbd.miller.flac24

Automated Mailer noreply-bt.e at etree.org
Sat Apr 22 03:46:58 UTC 2017


Band:           Grateful Dead
Torrent Name:   gd1987-03-26.138166.sbd.miller.flac24
Uploaded by:    greendude
DB Link:        
Details:        http://bt.etree.org/details.php?id=592505

Contact the seeder at http://db.etree.org/greendude

If the link to this show does not work, it was probably removed for
being non-trade-friendly.

Description / text file:
-------------------------
Grateful Dead - March 26, 1987
Hartford Civic Center - Hartford, CT

Recording Info:
Ultra Matrix SBD > Cassette Master (TDK MA-R90)

Transfer Info:
Cassette Master (Nakamichi CR-7A) > Tascam DA-3000 (DSF 1-bit/5.8 MHz) >
KORG AudioGate 4 > Adobe Audition CC 2015 > Samplitude Pro X3 Suite > FLAC/24
(1 Disc FLAC)

All Transfers and Mastering By Charlie Miller
charliemiller87 at earthlink.net
March 26, 2017

Notes:
-- This show is why there is an '87' in my email address
-- The low end on this recording is absolutely thunderous
-- Two sets of masters were used to make this show complete

Set 1:
01 - Tuning
02 - In The Midnight Hour
03 - Cold Rain And Snow
04 - C.C. Rider
05 - Row Jimmy
06 - My Brother Esau
07 - When Push Comes To Shove >
08 - Desolation Row >
09 - Bird Song >
10 - Promised Land

Set 2:
11 - China Cat Sunflower >
12 - I Know You Rider >
13 - Looks Like Rain >
14 - He's Gone >
15 - Drums >
16 - Space >
17 - I Need A Miracle >
18 - Black Peter >
19 - Around And Around >
20 - Good Lovin'

Encore:
21 - Encore Break
22 - The Mighty Quinn (Quinn The Eskimo)


SHNTOOL OUTPUT:
    length     expanded size    cdr  WAVE problems  fmt   ratio  filename
     1:09.540      40055192 B   cxx   --   ---xx   flac  0.6770  01 Tuning.flac
     4:17.120     148101152 B   cxx   --   ---xx   flac  0.6902  02 In The Midnight Hour.flac
     6:56.120     239685410 B   cxx   --   ---xx   flac  0.6825  03 Cold Rain And Snow.flac
     8:42.244     300812504 B   cxx   --   ---xx   flac  0.6790  04 CC Rider.flac
    13:10.963     455594618 B   cxx   --   ---xx   flac  0.6692  05 Row Jimmy.flac
     4:47.972     165871970 B   cxx   --   ---xx   flac  0.6794  06 My Brother Esau.flac
     4:39.301     160877276 B   cxx   --   ---xx   flac  0.6857  07 When Push Comes To Shove.flac
     8:54.610     307935566 B   cxx   --   ---xx   flac  0.6770  08 Desolation Row.flac
    10:24.545     359737862 B   cxx   --   ---xx   flac  0.6741  09 Bird Song.flac
     4:39.067     160742894 B   cxx   --   ---xx   flac  0.6757  10 Promised Land.flac
     6:03.511     209382548 B   cxx   --   ---xx   flac  0.6700  11 China Cat Sunflower.flac
     5:25.382     187420214 B   cxx   --   ---xx   flac  0.6766  12 I Know You Rider.flac
     8:25.261     291030290 B   cxx   --   ---xx   flac  0.6693  13 Looks Like Rain.flac
    13:22.101     462010196 B   cxx   --   ---xx   flac  0.6696  14 He's Gone.flac
     8:32.056     294944108 B   cxx   --   ---xx   flac  0.6742  15 Drums.flac
     7:47.102     269051006 B   cxx   --   ---xx   flac  0.6382  16 Space.flac
     4:23.468     151757384 B   cxx   --   ---xx   flac  0.6800  17 I Need A Miracle.flac
     9:17.953     321381050 B   cxx   --   ---xx   flac  0.6656  18 Black Peter.flac
     3:47.362     130960682 B   cxx   --   ---xx   flac  0.6777  19 Around And Around.flac
     7:37.737     263656292 B   cxx   --   ---xx   flac  0.6860  20 Good Lovin'.flac
     1:36.093      55349804 B   cxx   --   ---xx   flac  0.6645  21 Encore Break.flac
     5:17.108     182654150 B   cxx   --   ---xx   flac  0.6808  22 The Mighty Quinn (Quinn The Eskimo).flac
   149:16.617    5159012168 B                            0.6735  (22 files)




More information about the bittorrent mailing list