[bittorrent] gd1986-06-29.138165.sbd.miller.flac24

Automated Mailer noreply-bt.e at etree.org
Sat Apr 22 03:38:56 UTC 2017


Band:           Grateful Dead
Torrent Name:   gd1986-06-29.138165.sbd.miller.flac24
Uploaded by:    greendude
DB Link:        
Details:        http://bt.etree.org/details.php?id=592504

Contact the seeder at http://db.etree.org/greendude

If the link to this show does not work, it was probably removed for
being non-trade-friendly.

Description / text file:
-------------------------
Grateful Dead - June 29, 1986
Alpine Valley Music Theatre - East Troy, WI

Recording Info:
SBD > Cassette Master (Tascam Deck/TDK SA-X90)

Transfer Info:
Cassette Master (Nakamichi CR-7A) > Tascam DA-3000 (DSF 1-bit/5.8 MHz) >
KORG AudioGate 4 > Adobe Audition CC 2015 > Samplitude Pro X3 Suite > FLAC/24
(1 Disc FLAC)

All Transfers and Mastering By Charlie Miller
charliemiller87 at earthlink.net
February 8, 2017

Patch Info:
Sennheiser ME80 > Cassette Master supplies:
The Other One (0:25 - 1:26)

Notes:
-- Thanks to Joe B. Jones for his input on the pitch correction

Set 1:
01 - Tuning
02 - Mississippi Half-Step Uptown Toodeloo >
03 - Franklin's Tower >
04 - Dancing In The Street
05 - Brown Eyed Women >
06 - New Minglewood Blues
07 - Just Like Tom Thumb's Blues
08 - Stagger Lee
09 - Samson And Delilah

Set 2:
10 - Shakedown Street >
11 - Estimated Prophet >
12 - Eyes Of The World >
13 - Drums >
14 - Space >
15 - The Other One >
16 - Wharf Rat >
17 - Throwing Stones >
18 - Not Fade Away

Encore:
19 - Encore Break
20 - Not Fade Away
21 - U.S. Blues


SHNTOOL OUTPUT:    length     expanded size    cdr  WAVE problems  fmt   ratio  filename
     0:54.428      31350812 B   cxx   --   ---xx   flac  0.6580  01 Tuning.flac
     6:09.144     212626718 B   cxx   --   ---xx   flac  0.6960  02 Mississippi Half-Step Uptown Toodeloo.flac
     6:15.412     216237500 B   cxx   --   ---xx   flac  0.6923  03 Franklin's Tower.flac
     6:35.367     227731442 B   cxx   --   ---xx   flac  0.6857  04 Dancing In The Street.flac
     4:07.047     142299128 B   cxx   --   ---xx   flac  0.6955  05 Brown Eyed Women.flac
     8:12.578     283724738 B   cxx   --   ---xx   flac  0.6829  06 New Minglewood Blues.flac
     5:56.989     205625702 B   cxx   --   ---xx   flac  0.6997  07 Just Like Tom Thumb's Blues.flac
     5:10.251     178704494 B   cxx   --   ---xx   flac  0.6960  08 Stagger Lee.flac
     6:41.827     231452198 B   cxx   --   ---xx   flac  0.6834  09 Samson And Delilah.flac
    11:08.426     385013624 B   cxx   --   ---xx   flac  0.6931  10 Shakedown Street.flac
    10:12.175     352612904 B   cxx   --   ---xx   flac  0.6928  11 Estimated Prophet.flac
     5:47.283     200034968 B   cxx   --   ---xx   flac  0.6959  12 Eyes Of The World.flac
    13:05.416     452399846 B   cxx   --   ---xx   flac  0.6472  13 Drums.flac
     5:46.794     199753154 B   cxx   --   ---xx   flac  0.6356  14 Space.flac
     3:10.361     109648136 B   cxx   --   ---xx   flac  0.6837  15 The Other One.flac
     7:29.661     259004546 B   cxx   --   ---xx   flac  0.6803  16 Wharf Rat.flac
     7:38.167     263904074 B   cxx   --   ---xx   flac  0.6848  17 Throwing Stones.flac
     5:06.303     176430398 B   cxx   --   ---xx   flac  0.6870  18 Not Fade Away.flac
     3:11.236     110152226 B   cxx   --   ---xx   flac  0.6387  19 Encore Break.flac
     0:54.411      31341044 B   cxx   --   ---xx   flac  0.6804  20 Not Fade Away.flac
     4:42.486     162712208 B   cxx   --   ---xx   flac  0.6949  21 US Blues.flac
   128:15.762    4432759860 B                            0.6816  (21 files)




More information about the bittorrent mailing list