[bittorrent] gd1991-09-26.138152.dsbd.GEMS.flac16

Automated Mailer noreply-bt.e at etree.org
Sat Apr 22 01:51:31 UTC 2017


Band:           Grateful Dead
Torrent Name:   gd1991-09-26.138152.dsbd.GEMS.flac16
Uploaded by:    greendude
DB Link:        
Details:        http://bt.etree.org/details.php?id=592503

Contact the seeder at http://db.etree.org/greendude

If the link to this show does not work, it was probably removed for
being non-trade-friendly.

Description / text file:
-------------------------
Grateful Dead
Thursday, September 26, 1991
Boston Garden
Boston, MA

DSBD Masters

Carefully curated dat and beta tapes provide this shnid.

DAT->
Panasonic SV-3700-> SP/DIF-> RME Fireface UC-> USB 2.0-> 
Hewlett-Packard EliteBook 8460p-> Adobe Audition 3.0.1

Beta
Sony L-750ESX-HFB Dynamicron EXCELLENT SUPER HIFI VIDEO CASSETTE->
Sony SLO-1800 STEREO VIDEOCASSETTE RECORDER->
Sony PCM-601ESD DIGITAL AUDIO PROCESSOR-> SP/DIF->
Mytek Stereo 192 Sample Rate Converter-> Upsampled to 44.1kHz/24bit->SP/DIF->
RME FIREFACE 800-> FireWire 400->
Lenovo K450e Desktop PC-> WaveLab 6.11

This recording was gratefully supplied by PO and Stucco TINA Holmes and maybe others.
Thanks to spamjam for the equipment generosity.

Mastering and editing by acetboy on Pro Tools LE.
16 bit 44.1 kHz FLAC8 SBE Free March 2017

a project **GEMS** Beta-DATmania Release April 20, 2017

—-Set One—-
01 tuning
02 Jack Straw->
03 Cold Rain & Snow
04 Wang Dang Doodle
05 Candyman
06 Mexicali Blues->
07 Cumberland Blues
08 Picasso Moon->
09 Box of Rain

—-Set Two—-
10 Dark Star->
11 Saint of Circumstance->
12 Eyes of the World->
13 Drums->
14 Space->
15 The Other One->
16 Dark Star->
17 Attics of My Life->
18 Good Lovin’
encore
19 Brokedown Palace->
20 And We Bid You Goodnight

Band:
Jerry Garcia
Bob Weir
Phil Lesh
Bill Kreutzmann
Mickey Hart
Vince Welnick
Bruce Hornsby

Sound:
Dan Healy

originally shared at www.shnflac.net

    length     expanded size    cdr  WAVE problems  fmt   ratio  filename
     4:54.11       51887516 B   ---   --   ---xx   flac  0.5204  gd1991-09-26s1t01.flac
     5:54.17       62485628 B   ---   --   ---xx   flac  0.6310  gd1991-09-26s1t02.flac
     9:24.20       99536684 B   ---   --   ---xx   flac  0.5906  gd1991-09-26s1t03.flac
     9:50.73      104247740 B   ---   --   ---xx   flac  0.5617  gd1991-09-26s1t04.flac
    10:08.33      107328860 B   ---   --   ---xx   flac  0.5320  gd1991-09-26s1t05.flac
     5:41.48       60265340 B   ---   --   ---xx   flac  0.6078  gd1991-09-26s1t06.flac
     7:20.70       77780684 B   ---   --   ---xx   flac  0.5945  gd1991-09-26s1t07.flac
     6:46.13       71649020 B   ---   --   ---xx   flac  0.6482  gd1991-09-26s1t08.flac
     5:00.28       52985900 B   ---   --   ---xx   flac  0.6123  gd1991-09-26s1t09.flac
    15:50.68      167739980 B   ---   --   ---xx   flac  0.6039  gd1991-09-26s2t01.flac
     6:46.08       71637260 B   ---   --   ---xx   flac  0.6498  gd1991-09-26s2t02.flac
    12:47.62      135444668 B   ---   --   ---xx   flac  0.6160  gd1991-09-26s2t03.flac
     9:15.20       97949084 B   ---   --   ---xx   flac  0.5707  gd1991-09-26s2t04.flac
     9:22.38       99226220 B   ---   --   ---xx   flac  0.5583  gd1991-09-26s2t05.flac
     7:34.53       80210300 B   ---   --   ---xx   flac  0.6297  gd1991-09-26s2t06.flac
     6:21.15       67243724 B   ---   --   ---xx   flac  0.5724  gd1991-09-26s2t07.flac
     5:49.03       61570700 B   ---   --   ---xx   flac  0.5741  gd1991-09-26s2t08.flac
     7:56.72       84135788 B   ---   --   ---xx   flac  0.6330  gd1991-09-26s2t09.flac
     5:30.51       58331996 B   ---   --   ---xx   flac  0.5931  gd1991-09-26s2t10.flac
     3:06.12       32838668 B   ---   --   ---xx   flac  0.5636  gd1991-09-26s2t11.flac
   155:22.40     1644495760 B                            0.5934  (20 files)



More information about the bittorrent mailing list