[bittorrent] gd1991-09-25.138151.dsbd.GEMS.flac16

Automated Mailer noreply-bt.e at etree.org
Sat Apr 22 01:49:12 UTC 2017


Band:           Grateful Dead
Torrent Name:   gd1991-09-25.138151.dsbd.GEMS.flac16
Uploaded by:    greendude
DB Link:        
Details:        http://bt.etree.org/details.php?id=592502

Contact the seeder at http://db.etree.org/greendude

If the link to this show does not work, it was probably removed for
being non-trade-friendly.

Description / text file:
-------------------------
Grateful Dead
Wednesday, September 25, 1991
Boston Garden
Boston, MA

DSBD Masters

Carefully curated dat and beta tapes provide this shnid.

DAT->
Panasonic SV-3700-> SP/DIF-> RME Fireface UC-> USB 2.0-> 
Hewlett-Packard EliteBook 8460p-> Adobe Audition 3.0.1

Beta
Sony L-750ESX-HFB Dynamicron EXCELLENT SUPER HIFI VIDEO CASSETTE->
Sony SLO-1800 STEREO VIDEOCASSETTE RECORDER->
Sony PCM-601ESD DIGITAL AUDIO PROCESSOR-> SP/DIF->
Mytek Stereo 192 Sample Rate Converter-> Upsampled to 44.1kHz/24bit->SP/DIF->
RME FIREFACE 800-> FireWire 400->
Lenovo K450e Desktop PC-> WaveLab 6.11

This recording was gratefully supplied by PO and Stucco TINA Holmes and maybe others.
Thanks to spamjam for the equipment generosity.

Mastering and editing by acetboy on Pro Tools LE.
16 bit 44.1 kHz FLAC8 SBE Free March 2017

a project **GEMS** Beta-DATmania Release April 20, 2017

—-Set One—-
01 tuning
02 Help on the Way->
03 Slipknot!->
04 Franklin’s Tower
05 Walkin’ Blues
06 It Must Have Been the Roses->
07 Dire Wolf
08 Queen Jane Approximately
09 Tennessee Jed->
10 The Music Never Stopped

—-Set Two—-
11 tuning
12 Victim or the Crime->
13 Crazy Fingers->
14 Playin’ in the Band->
15 Terrapin Station->
16 Jam->
17 Drums->
18 Space->
19 That Would Be Something->
20 Playin’ reprise->
21 China Doll->
22 Throwing Stones->
23 Not Fade Away
encore
24 The Mighty Quinn

Band:
Jerry Garcia
Bob Weir
Phil Lesh
Bill Kreutzmann
Mickey Hart
Vince Welnick
Bruce Hornsby

Sound:
Dan Healy

originally shared at www.shnflac.net

    length     expanded size    cdr  WAVE problems  fmt   ratio  filename
     1:58.01       20817596 B   ---   --   ---xx   flac  0.4407  gd1991-09-25s1t01.flac
     3:59.67       42317228 B   ---   --   ---xx   flac  0.5598  gd1991-09-25s1t02.flac
     5:24.44       57257132 B   ---   --   ---xx   flac  0.5703  gd1991-09-25s1t03.flac
    10:40.33      112973660 B   ---   --   ---xx   flac  0.5961  gd1991-09-25s1t04.flac
     7:48.63       82703420 B   ---   --   ---xx   flac  0.5192  gd1991-09-25s1t05.flac
     5:46.66       61189676 B   ---   --   ---xx   flac  0.5447  gd1991-09-25s1t06.flac
     3:44.56       39645356 B   ---   --   ---xx   flac  0.5828  gd1991-09-25s1t07.flac
     7:33.56       80040956 B   ---   --   ---xx   flac  0.5451  gd1991-09-25s1t08.flac
     7:48.37       82642268 B   ---   --   ---xx   flac  0.5910  gd1991-09-25s1t09.flac
     8:10.00       86436044 B   ---   --   ---xx   flac  0.5743  gd1991-09-25s1t10.flac
     2:05.33       22127660 B   ---   --   ---xx   flac  0.4855  gd1991-09-25s2t01.flac
     7:42.37       81583868 B   ---   --   ---xx   flac  0.6018  gd1991-09-25s2t02.flac
     9:36.20      101653484 B   ---   --   ---xx   flac  0.5800  gd1991-09-25s2t03.flac
     9:40.10      102335564 B   ---   --   ---xx   flac  0.5936  gd1991-09-25s2t04.flac
    11:34.06      122435756 B   ---   --   ---xx   flac  0.5881  gd1991-09-25s2t05.flac
     6:25.13       67944620 B   ---   --   ---xx   flac  0.5626  gd1991-09-25s2t06.flac
     8:30.51       90083996 B   ---   --   ---xx   flac  0.4957  gd1991-09-25s2t07.flac
    10:05.36      106806716 B   ---   --   ---xx   flac  0.4232  gd1991-09-25s2t08.flac
     3:49.68       40555580 B   ---   --   ---xx   flac  0.4887  gd1991-09-25s2t09.flac
     5:24.51       57273596 B   ---   --   ---xx   flac  0.5879  gd1991-09-25s2t10.flac
     5:46.29       61102652 B   ---   --   ---xx   flac  0.5243  gd1991-09-25s2t11.flac
     8:58.63       95051420 B   ---   --   ---xx   flac  0.5943  gd1991-09-25s2t12.flac
    10:20.64      109518572 B   ---   --   ---xx   flac  0.5145  gd1991-09-25s2t13.flac
     4:26.21       46971836 B   ---   --   ---xx   flac  0.5679  gd1991-09-25s2t14.flac
   167:22.25     1771468656 B                            0.5527  (24 files)



More information about the bittorrent mailing list