[bittorrent] gd1991-09-24.138150.dsbd.GEMS.flac16

Automated Mailer noreply-bt.e at etree.org
Sat Apr 22 01:46:51 UTC 2017


Band:           Grateful Dead
Torrent Name:   gd1991-09-24.138150.dsbd.GEMS.flac16
Uploaded by:    greendude
DB Link:        
Details:        http://bt.etree.org/details.php?id=592501

Contact the seeder at http://db.etree.org/greendude

If the link to this show does not work, it was probably removed for
being non-trade-friendly.

Description / text file:
-------------------------
Grateful Dead
Tuesday, September 24, 1991
Boston Garden
Boston, MA

DSBD Masters

Carefully curated dat and beta tapes provide this shnid.

DAT->
Panasonic SV-3700-> SP/DIF-> RME Fireface UC-> USB 2.0-> 
Hewlett-Packard EliteBook 8460p-> Adobe Audition 3.0.1

Beta
Sony L-750ESX-HFB Dynamicron EXCELLENT SUPER HIFI VIDEO CASSETTE->
Sony SLO-1800 STEREO VIDEOCASSETTE RECORDER->
Sony PCM-601ESD DIGITAL AUDIO PROCESSOR-> SP/DIF->
Mytek Stereo 192 Sample Rate Converter-> Upsampled to 44.1kHz/24bit->SP/DIF->
RME FIREFACE 800-> FireWire 400->
Lenovo K450e Desktop PC-> WaveLab 6.11

This recording was gratefully supplied by PO and Stucco TINA Holmes and maybe others.
Thanks to spamjam for the equipment generosity.

Mastering and editing by acetboy on Pro Tools LE.
16 bit 44.1 kHz FLAC8 SBE Free March 2017

a project **GEMS** Beta-DATmania Release April 20, 2017

—-Set One—-
01 tuning
02 Let the Good Times Roll
03 Feel Like a Stranger
04 Althea
05 It’s All Over Now
06 High Time
07 Beat It On Down the Line
08 Big Railroad Blues
09 Desolation Row
10 New Speedway Boogie

—-Set Two—-
11 China Cat Sunflower->
12 I Know You Rider
13 Women are Smarter->
14 Ship of Fools->
15 Dark Star->
16 Drums->
17 Space->
18 Foolish Heart->
19 I Need a Miracle->
20 Standing on the Moon->
21 Around and Around
encore
22 The Weight

Band:
Jerry Garcia
Bob Weir
Phil Lesh
Bill Kreutzmann
Mickey Hart
Vince Welnick
Bruce Hornsby

Sound:
Dan Healy

originally shared at www.shnflac.net

    length     expanded size    cdr  WAVE problems  fmt   ratio  filename
     1:09.00       12171644 B   ---   --   ---xx   flac  0.3997  gd1991-09-24s1t01.flac
     4:20.08       45882860 B   ---   --   ---xx   flac  0.5717  gd1991-09-24s1t02.flac
     8:31.02       90145148 B   ---   --   ---xx   flac  0.5790  gd1991-09-24s1t03.flac
     8:35.22       90897788 B   ---   --   ---xx   flac  0.5473  gd1991-09-24s1t04.flac
     8:16.13       87525020 B   ---   --   ---xx   flac  0.5691  gd1991-09-24s1t05.flac
     8:49.66       93470876 B   ---   --   ---xx   flac  0.5019  gd1991-09-24s1t06.flac
     3:10.01       33518396 B   ---   --   ---xx   flac  0.6178  gd1991-09-24s1t07.flac
     5:36.62       59416268 B   ---   --   ---xx   flac  0.5809  gd1991-09-24s1t08.flac
    13:19.13      140974220 B   ---   --   ---xx   flac  0.5574  gd1991-09-24s1t09.flac
     8:08.54       86210252 B   ---   --   ---xx   flac  0.5749  gd1991-09-24s1t10.flac
     6:42.14       70945772 B   ---   --   ---xx   flac  0.5874  gd1991-09-24s2t01.flac
     6:47.50       71912444 B   ---   --   ---xx   flac  0.6068  gd1991-09-24s2t02.flac
     8:44.35       92515964 B   ---   --   ---xx   flac  0.6082  gd1991-09-24s2t03.flac
     8:31.64       90290972 B   ---   --   ---xx   flac  0.5531  gd1991-09-24s2t04.flac
    14:39.01      155057996 B   ---   --   ---xx   flac  0.5477  gd1991-09-24s2t05.flac
     6:17.37       66589868 B   ---   --   ---xx   flac  0.5365  gd1991-09-24s2t06.flac
     9:53.13      104635820 B   ---   --   ---xx   flac  0.3927  gd1991-09-24s2t07.flac
     9:34.17      101293628 B   ---   --   ---xx   flac  0.5953  gd1991-09-24s2t08.flac
     4:11.33       44354060 B   ---   --   ---xx   flac  0.6034  gd1991-09-24s2t09.flac
    10:15.41      108582476 B   ---   --   ---xx   flac  0.5359  gd1991-09-24s2t10.flac
    10:37.28      112432700 B   ---   --   ---xx   flac  0.5344  gd1991-09-24s2t11.flac
     5:40.29       60044252 B   ---   --   ---xx   flac  0.5823  gd1991-09-24s2t12.flac
   171:51.03     1818868424 B                            0.5535  (22 files)



More information about the bittorrent mailing list