[bittorrent] gd1991-09-22.138149.dsbd.GEMS.flac16

Automated Mailer noreply-bt.e at etree.org
Sat Apr 22 01:44:33 UTC 2017


Band:           Grateful Dead
Torrent Name:   gd1991-09-22.138149.dsbd.GEMS.flac16
Uploaded by:    greendude
DB Link:        
Details:        http://bt.etree.org/details.php?id=592500

Contact the seeder at http://db.etree.org/greendude

If the link to this show does not work, it was probably removed for
being non-trade-friendly.

Description / text file:
-------------------------
Grateful Dead
Sunday, September 22, 1991
Boston Garden
Boston, MA

DSBD Masters

Carefully curated dat and beta tapes provide this shnid.

DAT->
Panasonic SV-3700-> SP/DIF-> RME Fireface UC-> USB 2.0-> 
Hewlett-Packard EliteBook 8460p-> Adobe Audition 3.0.1

Beta
Sony L-750ESX-HFB Dynamicron EXCELLENT SUPER HIFI VIDEO CASSETTE->
Sony SLO-1800 STEREO VIDEOCASSETTE RECORDER->
Sony PCM-601ESD DIGITAL AUDIO PROCESSOR-> SP/DIF->
Mytek Stereo 192 Sample Rate Converter-> Upsampled to 44.1kHz/24bit->SP/DIF->
RME FIREFACE 800-> FireWire 400->
Lenovo K450e Desktop PC-> WaveLab 6.11

This recording was gratefully supplied by PO and Stucco TINA Holmes and maybe others.
Thanks to spamjam for the equipment generosity.

Mastering and editing by acetboy on Pro Tools LE.
16 bit 44.1 kHz FLAC8 SBE Free March 2017

a project **GEMS** Beta-DATmania Release April 20, 2017

—-Set One—-
01 tuning
02 Shakedown Street
03 C.C. Rider->
04 It Takes a Lot to Laugh, It Takes a Train to Cry
05 Me & My Uncle->
06 Maggie’s Farm
07 Brown Eyed Women
08 Let It Grow

—-Set Two—-
09 tuning
10 Samson & Delilah
11 Iko Iko
12 Looks Like Rain->
13 He’s Gone->
14 Nobody’s Fault But Mine>
15 Spoonful->
16 Drums->
17 Space->
18 The Last Time->
19 Stella Blue->
20 Sugar Magnolia
encore
21 Knockin’ On Heaven’s Door

Band:
Jerry Garcia
Bob Weir
Phil Lesh
Bill Kreutzmann
Mickey Hart
Vince Welnick
Bruce Hornsby

Sound:
Dan Healy

originally shared at www.shnflac.net

    length     expanded size    cdr  WAVE problems  fmt   ratio  filename
     2:06.33       22304060 B   ---   --   ---xx   flac  0.4675  gd1991-09-22s1t01.flac
    13:58.25      147882044 B   ---   --   ---xx   flac  0.6226  gd1991-09-22s1t02.flac
     6:05.04       64395452 B   ---   --   ---xx   flac  0.6065  gd1991-09-22s1t03.flac
     6:46.51       71738396 B   ---   --   ---xx   flac  0.5706  gd1991-09-22s1t04.flac
     3:13.68       34205180 B   ---   --   ---xx   flac  0.6111  gd1991-09-22s1t05.flac
     9:08.35       96749564 B   ---   --   ---xx   flac  0.5776  gd1991-09-22s1t06.flac
     5:30.09       58233212 B   ---   --   ---xx   flac  0.5974  gd1991-09-22s1t07.flac
    12:50.29      135896252 B   ---   --   ---xx   flac  0.6205  gd1991-09-22s1t08.flac
     1:19.51       14055596 B   ---   --   ---xx   flac  0.4666  gd1991-09-22s2t01.flac
     8:22.56       88684556 B   ---   --   ---xx   flac  0.6260  gd1991-09-22s2t02.flac
     7:35.49       80377292 B   ---   --   ---xx   flac  0.6271  gd1991-09-22s2t03.flac
     8:48.12       93167468 B   ---   --   ---xx   flac  0.5570  gd1991-09-22s2t04.flac
    10:04.02      106550348 B   ---   --   ---xx   flac  0.5879  gd1991-09-22s2t05.flac
     3:01.21       31977836 B   ---   --   ---xx   flac  0.6079  gd1991-09-22s2t06.flac
     4:20.71       46031036 B   ---   --   ---xx   flac  0.5782  gd1991-09-22s2t07.flac
    12:03.38      127626620 B   ---   --   ---xx   flac  0.5173  gd1991-09-22s2t08.flac
    10:51.28      114902300 B   ---   --   ---xx   flac  0.4465  gd1991-09-22s2t09.flac
     6:08.67       65072828 B   ---   --   ---xx   flac  0.6216  gd1991-09-22s2t10.flac
     9:58.11      105513116 B   ---   --   ---xx   flac  0.5609  gd1991-09-22s2t11.flac
    11:07.53      117783500 B   ---   --   ---xx   flac  0.6078  gd1991-09-22s2t12.flac
     9:08.52       96789548 B   ---   --   ---xx   flac  0.5519  gd1991-09-22s2t13.flac
   162:30.15     1719936204 B                            0.5776  (21 files)




More information about the bittorrent mailing list