[bittorrent] gd1991-09-21.138148.dsbd.GEMS.flac16

Automated Mailer noreply-bt.e at etree.org
Sat Apr 22 01:42:14 UTC 2017


Band:           Grateful Dead
Torrent Name:   gd1991-09-21.138148.dsbd.GEMS.flac16
Uploaded by:    greendude
DB Link:        
Details:        http://bt.etree.org/details.php?id=592499

Contact the seeder at http://db.etree.org/greendude

If the link to this show does not work, it was probably removed for
being non-trade-friendly.

Description / text file:
-------------------------
Grateful Dead
Saturday, September 21, 1991
Boston Garden
Boston, MA

DSBD Masters

Carefully curated dat and beta tapes provide this shnid.

DAT->
Panasonic SV-3700-> SP/DIF-> RME Fireface UC-> USB 2.0-> 
Hewlett-Packard EliteBook 8460p-> Adobe Audition 3.0.1

Beta
Sony L-750ESX-HFB Dynamicron EXCELLENT SUPER HIFI VIDEO CASSETTE->
Sony SLO-1800 STEREO VIDEOCASSETTE RECORDER->
Sony PCM-601ESD DIGITAL AUDIO PROCESSOR-> SP/DIF->
Mytek Stereo 192 Sample Rate Converter-> Upsampled to 44.1kHz/24bit->SP/DIF->
RME FIREFACE 800-> FireWire 400->
Lenovo K450e Desktop PC-> WaveLab 6.11

This recording was gratefully supplied by PO and Stucco TINA Holmes and maybe others.
Thanks to spamjam for the equipment generosity.

Mastering and editing by acetboy on Pro Tools LE.
16 bit 44.1 kHz FLAC8 SBE Free March 2017

a project **GEMS** Beta-DATmania Release April 20, 2017

—-Set One—-
01 tuning
02 Hell In a Bucket
03 They Love Each Other
04 New Minglewood Blues
05 Peggy-O
06 Just Like Tom Thumb’s Blues
07 Cassidy->
08 Deal 

—-Set Two—-
09 tuning
10 Uncle John’s Band->
11 Saint of Circumstance->
12 Eyes of the World->
13 Bruce Rocks Out Jam->
14 Drums->
15 Space->
16 The Other One->
17 Wharf Rat->
18 One More Saturday Night
encore
19 It’s All Over Now, Baby Blue

Band:
Jerry Garcia
Bob Weir
Phil Lesh
Bill Kreutzmann
Mickey Hart
Vince Welnick
Bruce Hornsby

Sound:
Dan Healy

originally shared at www.shnflac.net

    length     expanded size    cdr  WAVE problems  fmt   ratio  filename
     1:42.23       18046940 B   ---   --   ---xx   flac  0.4270  gd1991-09-21s1t01.flac
     7:10.39       75943772 B   ---   --   ---xx   flac  0.5905  gd1991-09-21s1t02.flac
     9:49.14      103932572 B   ---   --   ---xx   flac  0.5475  gd1991-09-21s1t03.flac
     8:02.21       85074236 B   ---   --   ---xx   flac  0.5886  gd1991-09-21s1t04.flac
     6:37.10       70054364 B   ---   --   ---xx   flac  0.5369  gd1991-09-21s1t05.flac
     6:17.03       66509900 B   ---   --   ---xx   flac  0.5713  gd1991-09-21s1t06.flac
     7:40.36       81228716 B   ---   --   ---xx   flac  0.6084  gd1991-09-21s1t07.flac
     6:47.12       71823068 B   ---   --   ---xx   flac  0.6250  gd1991-09-21s1t08.flac
     1:50.69       19566332 B   ---   --   ---xx   flac  0.3827  gd1991-09-21s2t01.flac
     7:54.28       83679500 B   ---   --   ---xx   flac  0.5901  gd1991-09-21s2t02.flac
     7:15.13       76764620 B   ---   --   ---xx   flac  0.6065  gd1991-09-21s2t03.flac
    14:11.28      150182300 B   ---   --   ---xx   flac  0.5702  gd1991-09-21s2t04.flac
     2:04.62       22019468 B   ---   --   ---xx   flac  0.5915  gd1991-09-21s2t05.flac
    11:04.06      117143756 B   ---   --   ---xx   flac  0.5102  gd1991-09-21s2t06.flac
    16:26.66      174085676 B   ---   --   ---xx   flac  0.3985  gd1991-09-21s2t07.flac
    10:22.21      109770236 B   ---   --   ---xx   flac  0.5728  gd1991-09-21s2t08.flac
    10:46.60      114095564 B   ---   --   ---xx   flac  0.5400  gd1991-09-21s2t09.flac
     7:36.08       80457260 B   ---   --   ---xx   flac  0.5417  gd1991-09-21s2t10.flac
     7:00.23       74142140 B   ---   --   ---xx   flac  0.5418  gd1991-09-21s2t11.flac
   150:39.17     1594520420 B                            0.5449  (19 files)




More information about the bittorrent mailing list