[bittorrent] gd1991-09-20.138147.dsbd.GEMS.flac1648

Automated Mailer noreply-bt.e at etree.org
Sat Apr 22 01:39:56 UTC 2017


Band:           Grateful Dead
Torrent Name:   gd1991-09-20.138147.dsbd.GEMS.flac1648
Uploaded by:    greendude
DB Link:        
Details:        http://bt.etree.org/details.php?id=592498

Contact the seeder at http://db.etree.org/greendude

If the link to this show does not work, it was probably removed for
being non-trade-friendly.

Description / text file:
-------------------------
Grateful Dead
Friday, September 20, 1991
Boston Garden
Boston, MA

DSBD Masters

Carefully curated dat and beta tapes provide this shnid.

DAT->
Panasonic SV-3700-> SP/DIF-> RME Fireface UC-> USB 2.0-> 
Hewlett-Packard EliteBook 8460p-> Adobe Audition 3.0.1

Beta
Sony L-750ESX-HFB Dynamicron EXCELLENT SUPER HIFI VIDEO CASSETTE->
Sony SLO-1800 STEREO VIDEOCASSETTE RECORDER->
Sony PCM-601ESD DIGITAL AUDIO PROCESSOR-> SP/DIF->
Mytek Stereo 192 Sample Rate Converter-> Upsampled to 44.1kHz/24bit->SP/DIF->
RME FIREFACE 800-> FireWire 400->
Lenovo K450e Desktop PC-> WaveLab 6.11

This recording was gratefully supplied by PO and Stucco TINA Holmes and maybe others.
Thanks to spamjam for the equipment generosity.

Mastering and editing by acetboy on Pro Tools LE.
16 bit 48 kHz FLAC8 SBE Free March 2017

This will not be released in 44.1 kHz, as our test with audio burning programs will convert 48 to 44.1 on the fly.

a project **GEMS** Beta-DATmania Release April 20, 2017

—-Set One—-
01 tuning
02 Touch of Grey
03 Little Red Rooster
04 Jack-A-Roe
05 Black Throated Wind
06 Stagger Lee
07 When I Paint My Masterpiece
08 Bird Song

—-Set Two—-
09 tuning
10 Help On the Way->
11 Slipknot!->
12 Fire On the Mountain
13 Estimated Prophet->
14 Truckin’->
15 Jam->
16 Drums->
17 Space->
18 All Along the Watchtower->
19 Morning Dew
Encore
20 Turn On Your Lovelight

There are short bits of slight distortion here and there

Band:
Jerry Garcia
Bob Weir
Phil Lesh
Bill Kreutzmann
Mickey Hart
Vince Welnick
Bruce Hornsby

Sound:
Dan Healy

originally shared at www.shnflac.net

    length     expanded size    cdr  WAVE problems  fmt   ratio  filename
     1:05.080      12495404 B   cxx   --   ---xx   flac  0.3818  gd1991-09-20s1t01.flac
     6:54.307      79546924 B   cxx   --   ---xx   flac  0.5102  gd1991-09-20s1t02.flac
    10:11.787     117463084 B   cxx   --   ---xx   flac  0.4687  gd1991-09-20s1t03.flac
     5:44.587      66160684 B   cxx   --   ---xx   flac  0.4844  gd1991-09-20s1t04.flac
     8:05.347      93186604 B   cxx   --   ---xx   flac  0.4951  gd1991-09-20s1t05.flac
     7:19.213      84329004 B   cxx   --   ---xx   flac  0.5524  gd1991-09-20s1t06.flac
     5:41.427      65553964 B   cxx   --   ---xx   flac  0.5018  gd1991-09-20s1t07.flac
    15:19.347     176514604 B   cxx   --   ---xx   flac  0.5341  gd1991-09-20s1t08.flac
     1:45.480      20252204 B   cxx   --   ---xx   flac  0.3779  gd1991-09-20s2t01.flac
     3:53.987      44925484 B   cxx   --   ---xx   flac  0.5478  gd1991-09-20s2t02.flac
     6:23.133      73561644 B   cxx   --   ---xx   flac  0.5401  gd1991-09-20s2t03.flac
    13:03.120     150359084 B   cxx   --   ---xx   flac  0.5208  gd1991-09-20s2t04.flac
    12:15.573     141230124 B   cxx   --   ---xx   flac  0.5234  gd1991-09-20s2t05.flac
    10:25.040     120007724 B   cxx   --   ---xx   flac  0.5578  gd1991-09-20s2t06.flac
     4:38.680      53506604 B   cxx   --   ---xx   flac  0.5304  gd1991-09-20s2t07.flac
     6:40.307      76858924 B   cxx   --   ---xx   flac  0.4735  gd1991-09-20s2t08.flac
    14:19.733     165068844 B   cxx   --   ---xx   flac  0.3923  gd1991-09-20s2t09.flac
     7:06.347      81858604 B   cxx   --   ---xx   flac  0.5439  gd1991-09-20s2t10.flac
    14:04.267     162099244 B   cxx   --   ---xx   flac  0.4786  gd1991-09-20s2t11.flac
     5:55.573      68270124 B   cxx   --   ---xx   flac  0.5622  gd1991-09-20s2t12.flac
   160:52.333    1853248880 B                            0.5037  (20 files)
.



More information about the bittorrent mailing list