[bittorrent] Col. Bruce Hampton And The Madrid Express Vista Room At Napoleon's Decatur, Georgia 4/20/2017 (Schoeps CCM4V'S FOB)

Automated Mailer noreply-bt.e at etree.org
Fri Apr 21 07:09:56 UTC 2017


Band:           Other
Torrent Name:   Col. Bruce Hampton And The Madrid Express Vista Room At Napoleon's Decatur, Georgia 4/20/2017 (Schoeps CCM4V'S FOB)
Uploaded by:    zmanatl
DB Link:        
Details:        http://bt.etree.org/details.php?id=592478

Contact the seeder at http://db.etree.org/zmanatl

If the link to this show does not work, it was probably removed for
being non-trade-friendly.

Description / text file:
-------------------------
Col. Bruce Hampton And The Madrid Express
Vista Room At Napoleon's
Decatur, Georgia
4/20/2017

Source: Schoeps CCM4V's>Lunatec V2>Benchmark AD2K>
Sound Devices 722 (24/44)
FOB/DFC/KFC/ZFC/AARP 15' From Stage, 7 1/2' High
DSP: Sound Devices 722>Sound Forge 10.0>CD Wave>flac(16)
ID3 Tagged In Foobar 2000
Recorded By: Z-Man
Seeded By: Z-Man 

Disc I 1st Set

01 Greeting
02 Gotta Face The Music >
03 I'm Feelin' Good
04 Can't Quit You Baby 
05 There Was A Time >
06 Yonder Wall >
07 Got My Mojo Working >
08 Yonder Wall >
09 Got My Mojo Working > 
10 Yonder Wall >
11 Got My Mojo Working >
12 Ain't Nothin' You Can Do >
13 Don't Go Into That Room >
14 Let Te Good Times Roll

Disc II 1st Set Con't

01 Dust My Broom >
02 Let The Good Times Roll >
03 Dust My Broom >
04 Let The Good Times Roll >
05 Space Is The Place >
06 Ride Me High >
07 Get Up Rock Your Funky Soul >
08 Hey Pockey Way 
09 There Was A Time 

Disc III 2nd Set 

01 Cry Me A River >
02 Yield Not To Temptation
03 *I'm So Glad 
04 Bless Your Soul 
05 *The Grogans Have Arrived >
06 Shoulda Quit You Baby 
07 Goodnight Irene >
08 *Jack The Rabbit

* With Joey "Papa J" Sommerville On Trumpet

Col. Bruce Hampton - Guitar And Vocals
Tyler Neal - Guitar And Vocals
Dante Harmon - Pedal Steel Guitar And Vocals
Emil Werstler - Guitar
Nick Sebastian - Bass And Vocals 
? - Drums And Vocals

colbruce2017-04-20d01t01.flac:5a2db3c29a49638e962b4f955fccdeb4
colbruce2017-04-20d01t02.flac:1e36d68e8fafc2f294346a2916a2479c
colbruce2017-04-20d01t03.flac:64c6c71797375b7cedc63aa0e4cb837e
colbruce2017-04-20d01t04.flac:53dce7f2bc5e550dd48bc8569564619d
colbruce2017-04-20d01t05.flac:53ebad9427e1cdf5d0215ea2de247160
colbruce2017-04-20d01t06.flac:17075fad7def33eb5daf877ce65811c4
colbruce2017-04-20d01t07.flac:d9265cb659e7bacce243e75a8d27d52a
colbruce2017-04-20d01t08.flac:65f96ab0689c78a6c0ce1de8403016db
colbruce2017-04-20d01t09.flac:33597d9e75be333c8198583e7d5a58d0
colbruce2017-04-20d01t10.flac:6f905bb587803cccc575113f4c70f860
colbruce2017-04-20d01t11.flac:bb7bf1030796ceb00552af5600f2126e
colbruce2017-04-20d01t12.flac:1872bdc9dd090967a7e9a80f8776c74a
colbruce2017-04-20d01t13.flac:2a2a97ded3582e1600556a3e3e46c81f
colbruce2017-04-20d01t14.flac:d41e0b27906469260969387100b98681
colbruce2017-04-20d02t01.flac:9f1656f05244cf6c75599b1a78cb3089
colbruce2017-04-20d02t02.flac:3db5c759a80f1d53df112a73ecf8e444
colbruce2017-04-20d02t03.flac:5b87782e388d39eac8f429c9e190136f
colbruce2017-04-20d02t04.flac:dfe8bdf8a5338caee95b57911496f2e7
colbruce2017-04-20d02t05.flac:0ae836b7968d745db8fee1f3e00d3335
colbruce2017-04-20d02t06.flac:c79cee247dab15921efe464502a945e0
colbruce2017-04-20d02t07.flac:64c6ef55a58c14ca7b98a026bd1a7232
colbruce2017-04-20d02t08.flac:458bbfb1e08372bfa4445059a465c57a
colbruce2017-04-20d02t09.flac:b4f9c4369b2182532b31328d3eee4bcb
colbruce2017-04-20d03t01.flac:e1c97a4c9033aac74a835655a9c66f1f
colbruce2017-04-20d03t02.flac:f6f3d24507332eb3242eefca269e93bf
colbruce2017-04-20d03t03.flac:bbb2c9f814a67634a9a868638d537e32
colbruce2017-04-20d03t04.flac:877f214812b7214e385606c8a5102c55
colbruce2017-04-20d03t05.flac:f06bb1e0a3e93667a3da5855aa479e9b
colbruce2017-04-20d03t06.flac:560726a611bd8fa079ce5a9b2349bf01
colbruce2017-04-20d03t07.flac:100fa32d40ba28c39e9dfbbec03d0c8a
colbruce2017-04-20d03t08.flac:e8195c9bd9a1d82f07c94f73f599b803

  length     expanded size    cdr  WAVE problems  fmt   ratio  filename
     0:10.09        1785212 B   ---   --   ---xx   flac  0.2533  colbruce2017-04-20d01t01.flac
     1:51.21       19629836 B   ---   --   ---xx   flac  0.5041  colbruce2017-04-20d01t02.flac
     6:28.16       68480876 B   ---   --   ---xx   flac  0.5425  colbruce2017-04-20d01t03.flac
     6:48.53       72095900 B   ---   --   ---xx   flac  0.5146  colbruce2017-04-20d01t04.flac
     9:41.03      102495500 B   ---   --   ---xx   flac  0.5789  colbruce2017-04-20d01t05.flac
     1:17.30       13653404 B   ---   --   ---xx   flac  0.4438  colbruce2017-04-20d01t06.flac
     0:21.18        3746780 B   ---   --   ---xx   flac  0.5002  colbruce2017-04-20d01t07.flac
     0:21.35        3786764 B   ---   --   ---xx   flac  0.4750  colbruce2017-04-20d01t08.flac
     3:15.08       34416860 B   ---   --   ---xx   flac  0.5267  colbruce2017-04-20d01t09.flac
     0:21.23        3758540 B   ---   --   ---xx   flac  0.5062  colbruce2017-04-20d01t10.flac
     0:31.57        5602508 B   ---   --   ---xx   flac  0.5371  colbruce2017-04-20d01t11.flac
     8:41.26       91965596 B   ---   --   ---xx   flac  0.5035  colbruce2017-04-20d01t12.flac
     6:49.00       72147644 B   ---   --   ---xx   flac  0.5156  colbruce2017-04-20d01t13.flac
     6:45.26       71503196 B   ---   --   ---xx   flac  0.5474  colbruce2017-04-20d01t14.flac
     6:01.17       63720428 B   ---   --   ---xx   flac  0.5336  colbruce2017-04-20d02t01.flac
     4:43.12       49949468 B   ---   --   ---xx   flac  0.5599  colbruce2017-04-20d02t02.flac
     0:44.58        7898060 B   ---   --   ---xx   flac  0.4546  colbruce2017-04-20d02t03.flac
     0:42.64        7559372 B   ---   --   ---xx   flac  0.4465  colbruce2017-04-20d02t04.flac
    11:50.28      125309900 B   ---   --   ---xx   flac  0.5784  colbruce2017-04-20d02t05.flac
     5:35.48       59206940 B   ---   --   ---xx   flac  0.5779  colbruce2017-04-20d02t06.flac
     1:24.27       14881148 B   ---   --   ---xx   flac  0.5818  colbruce2017-04-20d02t07.flac
     7:30.31       79452956 B   ---   --   ---xx   flac  0.5397  colbruce2017-04-20d02t08.flac
     8:31.73       90312140 B   ---   --   ---xx   flac  0.5652  colbruce2017-04-20d02t09.flac
     7:16.44       77013932 B   ---   --   ---xx   flac  0.6044  colbruce2017-04-20d03t01.flac
     4:52.48       51621740 B   ---   --   ---xx   flac  0.5630  colbruce2017-04-20d03t02.flac
    12:17.48      130119740 B   ---   --   ---xx   flac  0.5905  colbruce2017-04-20d03t03.flac
     5:28.29       57927452 B   ---   --   ---xx   flac  0.5240  colbruce2017-04-20d03t04.flac
    10:52.66      115168076 B   ---   --   ---xx   flac  0.5765  colbruce2017-04-20d03t05.flac
     7:08.19       75543932 B   ---   --   ---xx   flac  0.5841  colbruce2017-04-20d03t06.flac
     3:30.22       37095788 B   ---   --   ---xx   flac  0.4926  colbruce2017-04-20d03t07.flac
     9:52.63      104577020 B   ---   --   ---xx   flac  0.5711  colbruce2017-04-20d03t08.flac
   161:47.47     1712426708 B                            0.5541  (31 files)













More information about the bittorrent mailing list