[bittorrent] Comfort Zone Hilltop Tavern Lodi, New Jersey New 4/16/2017 (Schoeps CCM4V'S FOB)

Automated Mailer noreply-bt.e at etree.org
Mon Apr 17 01:18:03 UTC 2017


Band:           Other
Torrent Name:   Comfort Zone Hilltop Tavern Lodi, New Jersey New  4/16/2017 (Schoeps CCM4V'S FOB)
Uploaded by:    zmanatl
DB Link:        
Details:        http://bt.etree.org/details.php?id=592396

Contact the seeder at http://db.etree.org/zmanatl

If the link to this show does not work, it was probably removed for
being non-trade-friendly.

Description / text file:
-------------------------
Comfort Zone
Hilltop Tavern 
Port Chester, New Jersey
4/16/2017

Source: Schoeps CCM4V's>Lunatec V2>Benchmark AD2K>
Sound Devices 722 (24/44)
FOB/DFC/KFC/ZFC/AARP 8' From Stage, 6 1/2' High
DSP: Sound Devices 722>Sound Forge 10.0>CD Wave>flac(16)
ID3 Tagged In Foobar 2000
Recorded By: Z-Man
Seeded By: Z-Man
Thanks For Clamp Space Mike B.

Disc I 

01 Signs
02 One Toke Over The Line
03 The Weig
04 You Really Got A Hold On Me 
05 *To Love Somebody
06 The Night They Drove Old Dixie Down
07 I Saw The Light
08 Don't Think Twice, It's Alright
09 Desperado
10 Carwash Blues

* With Dave On Vocals

? - Vocals
? - Guitar And Vocals
Dave - Bass And Vocals  

comfort2017-04-16d01t01.flac:7be193a0a4870740b44f5a214bf5e135
comfort2017-04-16d01t02.flac:5ab63dde6199c6bff042e7decfcec6db
comfort2017-04-16d01t03.flac:357d371686c62307cccd69cacfa2a8ac
comfort2017-04-16d01t04.flac:11195e89ab6c3ac1e714a63996ee582a
comfort2017-04-16d01t05.flac:ced674459bb4eaf6ba835ac666c715d1
comfort2017-04-16d01t06.flac:d41fc0796f194d10f00dddb6ef8e612c
comfort2017-04-16d01t07.flac:44f0e86cb41d4fca2e37048fd791f2fb
comfort2017-04-16d01t08.flac:7eb20a36c444a5f5efec088fae761cf4
comfort2017-04-16d01t09.flac:53b20d92483999bf648f805e22f72132
comfort2017-04-16d01t10.flac:c106977918f7576e6509f0c0ef73e8c9

length     expanded size    cdr  WAVE problems  fmt   ratio  filename
     4:15.51       45101996 B   ---   --   ---xx   flac  0.5400  comfort2017-04-16d01t01.flac
     3:37.05       38290604 B   ---   --   ---xx   flac  0.5598  comfort2017-04-16d01t02.flac
     5:50.03       61747100 B   ---   --   ---xx   flac  0.5729  comfort2017-04-16d01t03.flac
     5:06.27       54041948 B   ---   --   ---xx   flac  0.4706  comfort2017-04-16d01t04.flac
     4:11.60       44417564 B   ---   --   ---xx   flac  0.5093  comfort2017-04-16d01t05.flac
     5:53.12       62297468 B   ---   --   ---xx   flac  0.5135  comfort2017-04-16d01t06.flac
     3:34.50       37867244 B   ---   --   ---xx   flac  0.5777  comfort2017-04-16d01t07.flac
     3:36.53       38227100 B   ---   --   ---xx   flac  0.6141  comfort2017-04-16d01t08.flac
     4:02.21       42738236 B   ---   --   ---xx   flac  0.4675  comfort2017-04-16d01t09.flac
     4:01.24       42568892 B   ---   --   ---xx   flac  0.5879  comfort2017-04-16d01t10.flac
    44:09.06      467298152 B                            0.5383  (10 files)












 












More information about the bittorrent mailing list