[bittorrent] jg1981-02-23.jgb.aud.partial.138135.flac1644

Automated Mailer noreply-bt.e at etree.org
Sat Apr 15 20:57:09 UTC 2017


Band:           Garcia
Torrent Name:   jg1981-02-23.jgb.aud.partial.138135.flac1644
Uploaded by:    nfagdtrfb
DB Link:        
Details:        http://bt.etree.org/details.php?id=592372

Contact the seeder at http://db.etree.org/nfagdtrfb

If the link to this show does not work, it was probably removed for
being non-trade-friendly.

Description / text file:
-------------------------
JERRY GARCIA BAND
The Stone
San Francisco CA
02-23-1981

s1t01 They Love Each Other
s1t02 Knockin' On Heaven's Door
s1t03 It Ain't No Use
s1t04 Sitting in Limbo
s1t05 Tangled Up in Blue

s2t01 /Let it Rock
xxxxx Russian Lullaby (missing?)
xxxxx The Harder They Come (missing?)
s2t02 Dear Prudence
s2t03 Midnight Moonlight

Unknown AUD kindly provided by wk & http://jgmf.blogspot.com/ 

Transfer: Maxell XLII-S > Nakamichi CR-5A > Edirol FA-66 > Wavelab 2448 > 
R8Brain > CD-Wave > TLH > FLAC 1644 tagged. Transfer by Andrew F. 04/2017

Note: The running order of 1st Set songs is as they were found on the tape. 
There's tape damage and speed issues audible at times. Let it Rock cuts in 
with about two minutes missing. Limbo and Midnight Moonlight cut in during 
the intros. Midnight Moonlight was the first song on tape Side-A, and has 
been moved to the end of the show for this file-set. Also, it sounds a bit 
different and may have been tape filler from another show in this era...

    length     expanded size    cdr  WAVE problems  fmt   ratio  filename
     8:43.41       92353676 B   ---   --   ---xx   flac  0.5406  jgb1981-02-23s1t01.flac
    15:38.32      165538508 B   ---   --   ---xx   flac  0.5328  jgb1981-02-23s1t02.flac
     9:32.07      100917308 B   ---   --   ---xx   flac  0.5459  jgb1981-02-23s1t03.flac
    13:18.24      140823692 B   ---   --   ---xx   flac  0.5597  jgb1981-02-23s1t04.flac
    11:07.20      117705884 B   ---   --   ---xx   flac  0.5672  jgb1981-02-23s1t05.flac
     7:06.08       75165260 B   ---   --   ---xx   flac  0.5598  jgb1981-02-23s2t01.flac
    12:43.50      134710844 B   ---   --   ---xx   flac  0.5794  jgb1981-02-23s2t02.flac
     8:09.73       86431340 B   ---   --   ---xx   flac  0.5585  jgb1981-02-23s2t03.flac
    86:19.30      913646512 B                            0.5551  (8 files)

No errors occured.




More information about the bittorrent mailing list