[bittorrent] Del And Dawg Tupelo Music Hall Derry, New Hampshire 4/14/2017 (Schoeps CCM4V'S FOB)

Automated Mailer noreply-bt.e at etree.org
Sat Apr 15 05:36:57 UTC 2017


Band:           David Grisman
Torrent Name:   Del And Dawg Tupelo Music Hall Derry, New Hampshire  4/14/2017 (Schoeps CCM4V'S FOB)
Uploaded by:    zmanatl
DB Link:        
Details:        http://bt.etree.org/details.php?id=592357

Contact the seeder at http://db.etree.org/zmanatl

If the link to this show does not work, it was probably removed for
being non-trade-friendly.

Description / text file:
-------------------------
Del McCoury And David "Dawg" Grisman
Tupelo Music Hall
Derry, New Hampshire
4/14/2017

Source: Schoeps CCM4V's>Lunatec V2>Benchmark AD2K>
Sound Devices 722 (24/44)
FOB/DFC/KFC/ZFC/AARP Mezzanine Row AA, Seat 18, 6' High
DSP: Sound Devices 722>Sound Forge 10.0>CD Wave>flac(16)
ID3 Tagged In Foobar 2000
Recorded By: Z-Man
Seeded By: Z-Man

Disc I 

01 Rabbit In A Log
02 Introductions 
03 Shackles And Chains
04 The East Virginia Blues
05 Banter
06 The G Run Blues
07 Dark Hollow
08 David Banter
09 The Toy Heart
10 Banter
11 Salt Creek >
12 Devil's Dream >
13 Shenandoah 
14 The Snow Dove
15 Banter On Merchandise
16 Country Boy Rock And Roll

Disc II 2nd Set

01 Farm And Fun Time
02 The Wild Side Of Life
03 Man Of Constant Sorrow
04 I Know What It Means To Be Lonesome
05 Letter From My Darlin' 
06 Del And Dawg
07 I'm My Own Grandpa
08 The Tennessee Waltz
09 New River Train
Encore:
10 Thanks
11 Life's Railway

Del McCoury - Guitar And Vocals
David Grisman - Mandolin And Vocals

delanddawg2017-04-14d01t01.flac:b588a70870bc2557c265344a68ef20c3
delanddawg2017-04-14d01t02.flac:bd7db6b825164d50e7335c8689b7e868
delanddawg2017-04-14d01t03.flac:4673b57edca40e8d0480e760e149fdaf
delanddawg2017-04-14d01t04.flac:b47fbe33b1a581d8a45080fa868bbbff
delanddawg2017-04-14d01t05.flac:a21da8cf3c6d88bc037cf52e3d9c7fed
delanddawg2017-04-14d01t06.flac:5ebafa79cc98d86fe1a7ae1285dde74a
delanddawg2017-04-14d01t07.flac:5a5c5fcdd78e4e4aa8e3fa085ec16eb1
delanddawg2017-04-14d01t08.flac:5ed3b85bd6af0db33f96ebeb8f1a9cb7
delanddawg2017-04-14d01t09.flac:8d54c2faaba6d36c65bbfb6cefe0b149
delanddawg2017-04-14d01t10.flac:929b340beb6bfbc919b75010e813694a
delanddawg2017-04-14d01t11.flac:74d90a29df45caa9e615fda877063c4c
delanddawg2017-04-14d01t12.flac:bbed4d77febc99bca00b3c7d44902759
delanddawg2017-04-14d01t13.flac:93eb148dbafcd5535b070c3af2d3e43b
delanddawg2017-04-14d01t14.flac:3285e03ea5fddc73d162717be5791fdf
delanddawg2017-04-14d01t15.flac:e9c1223cd90aac8e10240a6b2269d54d
delanddawg2017-04-14d01t16.flac:25a3f2422acd07426170c691de009bfe
delanddawg2017-04-14d02t01.flac:1e5b4854df4f8267c76de8e43576fe24
delanddawg2017-04-14d02t02.flac:5b03c596e8568718d52e89590ea770c8
delanddawg2017-04-14d02t03.flac:ebe95a5002901b114f934c23f6721fab
delanddawg2017-04-14d02t04.flac:66deb147c3c0cc0fabc890d71cdda384
delanddawg2017-04-14d02t05.flac:07256051bce95553311362f7fcc12061
delanddawg2017-04-14d02t06.flac:2deb7871cb17d3c798185eb7e1f2eafc
delanddawg2017-04-14d02t07.flac:75c999d9778f9da193918c64612edef9
delanddawg2017-04-14d02t08.flac:835f2cc59f1c07f842192fc3b335bb09
delanddawg2017-04-14d02t09.flac:e5cdc754ff88a48d8bc32465481746a8
delanddawg2017-04-14d02t10.flac:3345b73bcc859b7e74bfca7b5635eecc
delanddawg2017-04-14d02t11.flac:f5d69efd83bd5251a2f8872f1b2c5933

length     expanded size    cdr  WAVE problems  fmt   ratio  filename
     3:24.74       36159692 B   ---   --   ---xx   flac  0.5025  delanddawg2017-04-14d01t01.flac
     1:20.47       14222588 B   ---   --   ---xx   flac  0.4386  delanddawg2017-04-14d01t02.flac
     4:18.74       45685292 B   ---   --   ---xx   flac  0.4435  delanddawg2017-04-14d01t03.flac
     4:30.67       47785628 B   ---   --   ---xx   flac  0.4848  delanddawg2017-04-14d01t04.flac
     3:28.37       36778268 B   ---   --   ---xx   flac  0.3921  delanddawg2017-04-14d01t05.flac
     3:14.30       34292204 B   ---   --   ---xx   flac  0.4637  delanddawg2017-04-14d01t06.flac
     2:57.37       31309868 B   ---   --   ---xx   flac  0.5155  delanddawg2017-04-14d01t07.flac
     2:20.51       24815996 B   ---   --   ---xx   flac  0.3678  delanddawg2017-04-14d01t08.flac
     3:23.13       35839820 B   ---   --   ---xx   flac  0.4939  delanddawg2017-04-14d01t09.flac
     7:16.00       76910444 B   ---   --   ---xx   flac  0.3651  delanddawg2017-04-14d01t10.flac
     1:12.58       12837260 B   ---   --   ---xx   flac  0.4504  delanddawg2017-04-14d01t11.flac
     1:02.72       11106188 B   ---   --   ---xx   flac  0.4852  delanddawg2017-04-14d01t12.flac
     2:40.00       28224044 B   ---   --   ---xx   flac  0.4464  delanddawg2017-04-14d01t13.flac
     3:18.00       34927244 B   ---   --   ---xx   flac  0.4574  delanddawg2017-04-14d01t14.flac
     2:59.32       31650908 B   ---   --   ---xx   flac  0.3852  delanddawg2017-04-14d01t15.flac
     3:41.32       39059708 B   ---   --   ---xx   flac  0.4972  delanddawg2017-04-14d01t16.flac
     3:10.03       33523100 B   ---   --   ---xx   flac  0.4550  delanddawg2017-04-14d02t01.flac
     4:25.02       46750748 B   ---   --   ---xx   flac  0.4488  delanddawg2017-04-14d02t02.flac
     3:27.62       36660668 B   ---   --   ---xx   flac  0.4599  delanddawg2017-04-14d02t03.flac
     2:57.59       31361612 B   ---   --   ---xx   flac  0.4943  delanddawg2017-04-14d02t04.flac
     3:49.03       40402700 B   ---   --   ---xx   flac  0.4756  delanddawg2017-04-14d02t05.flac
     3:54.12       41305868 B   ---   --   ---xx   flac  0.4442  delanddawg2017-04-14d02t06.flac
     4:30.11       47653916 B   ---   --   ---xx   flac  0.4575  delanddawg2017-04-14d02t07.flac
     4:25.50       46863644 B   ---   --   ---xx   flac  0.4390  delanddawg2017-04-14d02t08.flac
     4:09.42       44022428 B   ---   --   ---xx   flac  0.4970  delanddawg2017-04-14d02t09.flac
     1:27.32       15422108 B   ---   --   ---xx   flac  0.4498  delanddawg2017-04-14d02t10.flac
     6:17.15       66538124 B   ---   --   ---xx   flac  0.4235  delanddawg2017-04-14d02t11.flac
    93:44.15      992110068 B                            0.4496  (27 files)













More information about the bittorrent mailing list