[bittorrent] Widespread Panic 1994-07-17 Liberty Hall, Lawrence, KS *SBD/AUD Matrix*

Automated Mailer noreply-bt.e at etree.org
Fri Apr 14 23:43:00 UTC 2017


Band:           Widespread Panic
Torrent Name:   Widespread Panic 1994-07-17 Liberty Hall, Lawrence, KS *SBD/AUD Matrix*
Uploaded by:    annapurna1228
DB Link:        
Details:        http://bt.etree.org/details.php?id=592349

Contact the seeder at http://db.etree.org/annapurna1228

If the link to this show does not work, it was probably removed for
being non-trade-friendly.

Description / text file:
-------------------------
Widespread Panic
Sunday, July 17, 1994
Liberty Hall
Lawrence, KS

Matrix by jeh253 at gmail.com 2017.03.31

Source 1: SBD > DAT @ 48.0khz 
Transfer: Tascam DA-45HR > Audiophile 24/96 USB > Cool Edit 2000 > CDwave > FLAC(level 6)
Resampled(48>44.1) and Fades added in Cool Edit
Tracked in CDWave
Converted and edited by D.P. Swint
Seeded by Patrick Wood

Source 2: Unknown AUD (likely from Chris Basnett) > ? > CDR
Transfer: CD > EAC > Flac/16

One Set:
01 Garrie Vereen Intro
02 A of D ->
03 Junior ->
04 Better Off
05 Pigeons
06 Little Kin
07 Walkin'
08 Heroes
09 Hatfield ->
10 Driving Song ->
11 Pleas ->
12 Driving Song ->
13 Jam ->
14 Entering A Black Hole Backwards ->
15 Chilly Water ->
16 Drums ->
17 Chilly Water
18 Pilgrims
19 C. Brown ->
20 Proving Ground
Encore:
21 Pickin' Up The Pieces ->
22 Flat Foot Flewzy
23 Garrie Vereen Outro


Lineup:
-Michael Houser - guitar, vocals
-John Bell - guitar, vocals
-John Hermann - piano, organ, vocals
-David Schools - bass, vocals
-Todd Nance - drums
-Domingo Ortiz - percussion

Show Notes:
-- 'Linus and Lucy' tease by Jojo during 'C. Brown' 
-- The Salty Iguanas opened the show.
-- One long set.


Matrix Production Notes:
1) Approximately 5.75 seconds missing from audience source d2t01 (Hatfield) at about 9 minutes, 47 seconds. Realigned and provided fade-out/in.
2) The first 16.787 seconds of audience source d2t07 (Drums) overlapped the closing seconds of d2t06 (Chilly Water). There was a noticeable splice in the track 6 overlap, so deleted from d2t06.
3) The audience source was missing approximately 14 seconds between d2t09 and d2t10 (Pilgrims/C. Brown). Realigned and provided fade-out/in.
4) Swapped left and right channels of soundboard source.
5) Soundboard source was missing approximately 1 minute, 43 seconds between end of set and encore. Realigned with existing audience and provided fade-out/in.
6) Applied approximately 1.5 dB boost at 65 and 265 Hz and dropped to -2dB over 1-6kHz, maintaining the -2dB for the rest of the audible spectrum. See accompanying graph.

shntool output:
    length     expanded size    cdr  WAVE problems  fmt   ratio  filename
     0:50.59        8958812 B   ---   --   ---xx   flac  0.4944  01 intro.flac
     3:03.66       32436476 B   ---   --   ---xx   flac  0.6173  02 A of D.flac
     4:51.43       51433580 B   ---   --   ---xx   flac  0.6428  03 Junior.flac
     6:19.47       66966188 B   ---   --   ---xx   flac  0.5951  04 Better Off.flac
    10:06.74      107072492 B   ---   --   ---xx   flac  0.6168  05 Pigeons.flac
     5:41.45       60258284 B   ---   --   ---xx   flac  0.6159  06 Little Kin.flac
     5:34.44       59021132 B   ---   --   ---xx   flac  0.5873  07 Walkin'.flac
     5:22.50       56918444 B   ---   --   ---xx   flac  0.6179  08 Heroes.flac
    12:36.51      133478396 B   ---   --   ---xx   flac  0.5766  09 Hatfield.flac
     4:08.42       43846028 B   ---   --   ---xx   flac  0.5913  10 Driving Song.flac
     7:28.28       79093100 B   ---   --   ---xx   flac  0.6007  11 Pleas.flac
     2:43.47       28863788 B   ---   --   ---xx   flac  0.5976  12 Driving Song.flac
     2:59.44       31679132 B   ---   --   ---xx   flac  0.5970  13 jam.flac
     1:33.49       16520492 B   ---   --   ---xx   flac  0.6077  14 Entering a Black Hole Backwards.flac
     5:28.07       57875708 B   ---   --   ---xx   flac  0.6175  15 Chilly Water.flac
     2:51.39       30256172 B   ---   --   ---xx   flac  0.6169  16 Drums.flac
     4:27.04       47108252 B   ---   --   ---xx   flac  0.6243  17 Chilly Water.flac
    10:08.09      107272412 B   ---   --   ---xx   flac  0.5893  18 Pilgrims.flac
     5:45.49       60973292 B   ---   --   ---xx   flac  0.5922  19 C. Brown.flac
     9:15.45       98007884 B   ---   --   ---xx   flac  0.5969  20 Proving Grounds.flac
     4:38.15       49074524 B   ---   --   ---xx   flac  0.5771  21 Pickin' Up the Pieces.flac
     5:22.70       56965484 B   ---   --   ---xx   flac  0.6537  22 Flat Foot Floozy.flac
     0:40.16        7093676 B   ---   --   ---xx   flac  0.4273  23 outtro.flac
   121:59.43     1291173748 B                            0.6019  (23 files)



More information about the bittorrent mailing list