[bittorrent] Maja & David Club Passim Cambridge, Massachusetts 4/13/2017 (Schoeps CCM4V'S FOB)

Automated Mailer noreply-bt.e at etree.org
Fri Apr 14 06:04:59 UTC 2017


Band:           Other
Torrent Name:   Maja & David Club Passim Cambridge, Massachusetts  4/13/2017 (Schoeps CCM4V'S FOB)
Uploaded by:    zmanatl
DB Link:        
Details:        http://bt.etree.org/details.php?id=592330

Contact the seeder at http://db.etree.org/zmanatl

If the link to this show does not work, it was probably removed for
being non-trade-friendly.

Description / text file:
-------------------------
Maja & David
Club Passim
Cambridge, Massachusetts
4/13/2017

Source: Schoeps CCM4V's>Lunatec V2>Benchmark AD2K>
Sound Devices 722 (24/44)
FOB/DFC/KFC/ZFC/AARP Stage Lip, 6 1/2' High
DSP: Sound Devices 722>Sound Forge 10.0>CD Wave>flac(16)
ID3 Tagged In Foobar 2000
Recorded By: Z-Man
Seeded By: Z-Man

Disc I 

01 Greeting/Introduction By Dan
02 ? > ?
03 David Banter
04 First Waltz >
05 The Fox's Waltz
06 David Banter
07 ?
08 Those Who Fly
09 Maja Banter
10 ? >
11 ?
12 David Banter

Disc II  

01 Old Eight Turns In Line
02 David And Maja Banter
03 After Apertif
04 David Banter
05 After The Party
06 Did Banterav
07 Bee's Knees
08 ?
09 Banter
10 ?
Encore:
11 David Banter
12 Happy Birthday I >
13 Happy Birthday II
14 Dan Outro

Maja - Fiddle And Vocals
David - Fiddle, Harmonica, And Vocals

maja2017-04-13d01t01.flac:8d13fa41e3c1304be61144bbb2353372
maja2017-04-13d01t02.flac:9321be08a25ea8997f2fb621dabdcf90
maja2017-04-13d01t03.flac:3657cf13c5574da57f5d9eb17eff9b5b
maja2017-04-13d01t04.flac:2e2731c44b5d573a945d969ec81ceb6c
maja2017-04-13d01t05.flac:b0a630deaa98917e11182f4515bda7d9
maja2017-04-13d01t06.flac:3b5f89a698d3e5b1bc8fec26dad11797
maja2017-04-13d01t07.flac:dd227229962ef180811b1c6734436220
maja2017-04-13d01t08.flac:b8d2aa3869870fc88e9d8be66e01fc39
maja2017-04-13d01t09.flac:d65026892f2bb29fb1500a3cb7022a31
maja2017-04-13d01t10.flac:81b319c53f6c544012e50cd1bff5632c
maja2017-04-13d01t11.flac:f8d55b2d5ce401d8210a66173b530c31
maja2017-04-13d01t12.flac:f1379061da96f71ff7b35027f03040d4
maja2017-04-13d02t01.flac:8b538099bb7ec2102ebc45d659c6cd89
maja2017-04-13d02t02.flac:ac0900f968bdaf3d808a8b10cca6eeb2
maja2017-04-13d02t03.flac:681816f96a7b43621923eaeb6f12733e
maja2017-04-13d02t04.flac:b38f742cab225161c55592a225ae7311
maja2017-04-13d02t05.flac:0a27bf450a36cea5d472ba838682666c
maja2017-04-13d02t06.flac:046115e8eeb22ea15e2b5fa50bdb82d8
maja2017-04-13d02t07.flac:6639bebd7dcfec187e4c875f96ff28d4
maja2017-04-13d02t08.flac:0503c4d45228b31f2d2c382a545ed7cc
maja2017-04-13d02t09.flac:67df22da5dcee0a1466bc0103db396e4
maja2017-04-13d02t10.flac:4edef29e7d638e373fff2d82b1e46c84
maja2017-04-13d02t11.flac:9ccb96da06fc404b72ea685603f70538
maja2017-04-13d02t12.flac:4f1f691b924724da39dbf34cc1c4c565
maja2017-04-13d02t13.flac:19deea8fdf8da4f2709503835cfaa267
maja2017-04-13d02t14.flac:cb70a3d28761ddef8a5ba73a29be80e4

 length     expanded size    cdr  WAVE problems  fmt   ratio  filename
     2:36.26       27579596 B   ---   --   ---xx   flac  0.3273  maja2017-04-13d01t01.flac
     5:02.55       53402204 B   ---   --   ---xx   flac  0.4551  maja2017-04-13d01t02.flac
     2:46.59       29421212 B   ---   --   ---xx   flac  0.2765  maja2017-04-13d01t03.flac
     2:27.47       26041388 B   ---   --   ---xx   flac  0.3742  maja2017-04-13d01t04.flac
     1:23.30       14711804 B   ---   --   ---xx   flac  0.3285  maja2017-04-13d01t05.flac
     2:51.70       30329084 B   ---   --   ---xx   flac  0.2774  maja2017-04-13d01t06.flac
     5:56.71       62965436 B   ---   --   ---xx   flac  0.3648  maja2017-04-13d01t07.flac
     4:25.68       46905980 B   ---   --   ---xx   flac  0.3359  maja2017-04-13d01t08.flac
     3:47.31       40115756 B   ---   --   ---xx   flac  0.2797  maja2017-04-13d01t09.flac
     2:52.70       30505484 B   ---   --   ---xx   flac  0.3372  maja2017-04-13d01t10.flac
     1:45.21       18571436 B   ---   --   ---xx   flac  0.3961  maja2017-04-13d01t11.flac
     2:35.40       27436124 B   ---   --   ---xx   flac  0.2651  maja2017-04-13d01t12.flac
     3:43.15       39372524 B   ---   --   ---xx   flac  0.3801  maja2017-04-13d02t01.flac
     2:58.06       31413356 B   ---   --   ---xx   flac  0.2650  maja2017-04-13d02t02.flac
     4:19.62       45833468 B   ---   --   ---xx   flac  0.3556  maja2017-04-13d02t03.flac
     3:39.58       38768060 B   ---   --   ---xx   flac  0.2860  maja2017-04-13d02t04.flac
     5:07.39       54246572 B   ---   --   ---xx   flac  0.3545  maja2017-04-13d02t05.flac
     2:44.21       28979036 B   ---   --   ---xx   flac  0.2573  maja2017-04-13d02t06.flac
     5:20.33       56525660 B   ---   --   ---xx   flac  0.3639  maja2017-04-13d02t07.flac
     4:04.20       43088684 B   ---   --   ---xx   flac  0.2894  maja2017-04-13d02t08.flac
     2:01.49       21459692 B   ---   --   ---xx   flac  0.3745  maja2017-04-13d02t09.flac
     2:17.23       24220940 B   ---   --   ---xx   flac  0.3520  maja2017-04-13d02t10.flac
     2:39.62       28193468 B   ---   --   ---xx   flac  0.2959  maja2017-04-13d02t11.flac
     1:26.60       15311564 B   ---   --   ---xx   flac  0.3484  maja2017-04-13d02t12.flac
     2:20.58       24832460 B   ---   --   ---xx   flac  0.3887  maja2017-04-13d02t13.flac
     1:03.52       11235548 B   ---   --   ---xx   flac  0.3907  maja2017-04-13d02t14.flac
    82:20.21      871466536 B                            0.3374  (26 files)











More information about the bittorrent mailing list