[bittorrent] Bearly Dead Thunder Road Somerville, Massachusetts 4/12/2017 (Schoeps CCM4V'S FOB)

Automated Mailer noreply-bt.e at etree.org
Thu Apr 13 06:53:14 UTC 2017


Band:           Other
Torrent Name:   Bearly Dead Thunder Road Somerville, Massachusetts 4/12/2017 (Schoeps CCM4V'S FOB)
Uploaded by:    zmanatl
DB Link:        
Details:        http://bt.etree.org/details.php?id=592311

Contact the seeder at http://db.etree.org/zmanatl

If the link to this show does not work, it was probably removed for
being non-trade-friendly.

Description / text file:
-------------------------
Bearly Dead
Thunder Road
Somerville, Massachusetts
4/12/2017

Source: Schoeps CCM4V's>Lunatec V2>Benchmark AD2K>
Sound Devices 722 (24/44)
FOB/DLFC/KFC/ZFC/AARP 10' From Stage, 7' High
DSP: Sound Devices 722>Sound Forge 10.0>CD Wave>flac(16)
ID3 Tagged In Foobar 2000
Recorded By: Z-Man
Seeded By: Z-Man

Disc I 1st Set

01 Tuning/Jam 
02 Mississippi Half-Step 
03 Deal
04 It Takes A Lot To Laugh, It Takes A Train To Cry
05 Peggy-O
06 Deep Elem Blues
07 Tangled Up In Blue >
08 Althea
09 Tennessee Jed

Disc II 1st Set Con't 

01 Black-Throated Wind 
02 Jack Straw
2nd Set:
03 Announcement/Tuning
04 China-Cat Sunflower >
05 I Know You Rider 
06 Mr. Charlie
07 Little Red Rooster

Disc III 2nd Set Con't

01 St. Stephen >
02 Scarlet Begonias >
03 Sugaree
04 Hey Pockey Way >
05 I Walk On Guilded Splinters Jam >
06 Hey Pockey Way
07 China Doll
08 Beat It On Down The Lind 
09 Ramble On Rose 
10 Golden Road To Unlimited Devotion

Tyler Brooks - Drums And Vocals
David Becker - Bass
James Owens - Vocals
Brian Sayers - Drums 
Milt Reder - Guitar And Vocals
Jeff Vetstein - Guitar And Vocals
Justin Lopes - Keyboards
Liz Biggar - Vocals
Brendan Tommaney - Percussion

bearly2017-04-12d01t01.flac:9f3a14a877a6a01b50467d8147827521
bearly2017-04-12d01t02.flac:27c94494f91b28d94fde87a8050b6bb2
bearly2017-04-12d01t03.flac:ab5e3e1cb8ba7992ba0c1955d1d3fc32
bearly2017-04-12d01t04.flac:523d7af2e97891294c203fa264564455
bearly2017-04-12d01t05.flac:59a57b8e04f68b5d79593fb8dbf38d2a
bearly2017-04-12d01t06.flac:ff90e383ceae5956059ffb44a9f297d3
bearly2017-04-12d01t07.flac:8698a2c138f3c0399cb6fa0c4c6617de
bearly2017-04-12d01t08.flac:50309bd2ed06d459d3fedcb29f189bc4
bearly2017-04-12d01t09.flac:e42f2971ba503543e152da56cb8dfcfa
bearly2017-04-12d02t01.flac:8398efb3b4f2546f2202a5b76ff22553
bearly2017-04-12d02t02.flac:8d83b8b1c16412f48aaf668fdcfc95a4
bearly2017-04-12d02t03.flac:2be4439b992390cf62f4719982318fa4
bearly2017-04-12d02t04.flac:79d02f0c07d0f31d476a26921f5dee9d
bearly2017-04-12d02t05.flac:cdf5cabd3630534ac2e52dc556dfc2f7
bearly2017-04-12d02t06.flac:914251b3ce74c261e1034615890a3985
bearly2017-04-12d02t07.flac:3525d95d6d7e290fd89174f54a7903f0
bearly2017-04-12d03t01.flac:ade3cd86aa215daf8f0707a2991f9689
bearly2017-04-12d03t02.flac:1b1cda551b5ed1a4f2331ea61db3d03e
bearly2017-04-12d03t03.flac:dab52c84b86c362267c3965543bc64ed
bearly2017-04-12d03t04.flac:f8656b929d95ae643f27694a13cbac50
bearly2017-04-12d03t05.flac:ee8af4f8f75fb3700ef6bf2c25d6a637
bearly2017-04-12d03t06.flac:3a3b485cb08225ec10c4f4ec53fdf796
bearly2017-04-12d03t07.flac:19f83a4db62863d29e4d23fb655bf162
bearly2017-04-12d03t08.flac:c8bfadc685b4f8650514d0137fd1f691
bearly2017-04-12d03t09.flac:a6e42f12f0588131da7477881aa1d683
bearly2017-04-12d03t10.flac:29fd1774da644981e202b5c02e1e3ea8

length     expanded size    cdr  WAVE problems  fmt   ratio  filename
     4:24.65       46722524 B   ---   --   ---xx   flac  0.3495  bearly2017-04-12d01t01.flac
     7:46.72       82371788 B   ---   --   ---xx   flac  0.4996  bearly2017-04-12d01t02.flac
     7:46.01       82204796 B   ---   --   ---xx   flac  0.5413  bearly2017-04-12d01t03.flac
     9:55.71      105125036 B   ---   --   ---xx   flac  0.4460  bearly2017-04-12d01t04.flac
     7:40.68       81303980 B   ---   --   ---xx   flac  0.4436  bearly2017-04-12d01t05.flac
     8:09.08       86278460 B   ---   --   ---xx   flac  0.4982  bearly2017-04-12d01t06.flac
     9:18.44       98534732 B   ---   --   ---xx   flac  0.5443  bearly2017-04-12d01t07.flac
    10:06.68      107058380 B   ---   --   ---xx   flac  0.4989  bearly2017-04-12d01t08.flac
     7:49.18       82773980 B   ---   --   ---xx   flac  0.5255  bearly2017-04-12d01t09.flac
     7:40.18       81186380 B   ---   --   ---xx   flac  0.4624  bearly2017-04-12d02t01.flac
     7:44.14       81882572 B   ---   --   ---xx   flac  0.5128  bearly2017-04-12d02t02.flac
     1:15.06       13244156 B   ---   --   ---xx   flac  0.3413  bearly2017-04-12d02t03.flac
     5:22.41       56897276 B   ---   --   ---xx   flac  0.5113  bearly2017-04-12d02t04.flac
     6:36.55       69983804 B   ---   --   ---xx   flac  0.4948  bearly2017-04-12d02t05.flac
     7:32.31       79805756 B   ---   --   ---xx   flac  0.5301  bearly2017-04-12d02t06.flac
     8:51.46       93776636 B   ---   --   ---xx   flac  0.5026  bearly2017-04-12d02t07.flac
     6:34.66       69656876 B   ---   --   ---xx   flac  0.4989  bearly2017-04-12d03t01.flac
     4:37.04       48872252 B   ---   --   ---xx   flac  0.5603  bearly2017-04-12d03t02.flac
    10:42.55      113378204 B   ---   --   ---xx   flac  0.4855  bearly2017-04-12d03t03.flac
     6:42.41       71009276 B   ---   --   ---xx   flac  0.5423  bearly2017-04-12d03t04.flac
     4:58.17       52607228 B   ---   --   ---xx   flac  0.5260  bearly2017-04-12d03t05.flac
     1:33.47       16515788 B   ---   --   ---xx   flac  0.3912  bearly2017-04-12d03t06.flac
     7:17.43       77187980 B   ---   --   ---xx   flac  0.4644  bearly2017-04-12d03t07.flac
     3:56.27       41693948 B   ---   --   ---xx   flac  0.5007  bearly2017-04-12d03t08.flac
     6:20.61       67175516 B   ---   --   ---xx   flac  0.5060  bearly2017-04-12d03t09.flac
     5:41.22       60204188 B   ---   --   ---xx   flac  0.5338  bearly2017-04-12d03t10.flac
   176:26.34     1867451512 B                            0.4971  (26 files)








More information about the bittorrent mailing list