[bittorrent] kingfish1986-04-27.sbd.BFC015.138125.sbeok.flac16 E

Automated Mailer noreply-bt.e at etree.org
Thu Apr 13 05:32:58 UTC 2017


Band:           Other
Torrent Name:   kingfish1986-04-27.sbd.BFC015.138125.sbeok.flac16 E
Uploaded by:     SIRMick
DB Link:        
Details:        http://bt.etree.org/details.php?id=592308

Contact the seeder at http://db.etree.org/ SIRMick

If the link to this show does not work, it was probably removed for
being non-trade-friendly.

Description / text file:
-------------------------
The Barry Flast Collection

Barry Flast was a musician who played with the who’s who of the Rock & Roll world for 45 years. He was also a prolific music collector who always had a tape recorder going every place he went. Barry passed away in November 2013. His wife, Mary, has generously offered to share some of his music collection with the music trading world. This project will be ongoing for a long time to come. Barry collected thousands of soundboards, audience recordings, and various home recordings & compilations. Many of them will be shared over the coming months and years.


Thank you Barry.


@~@~@~@~@~@~@~@~@~@~@

Kingfish
Keystone
Palo Alto, CA
04/27/1986


Source: sbd > ??? > Barry Flast's cdr (probably from master)

Set I *

01   One Night Stand
02   Jump For Joy
03   Big Boss Man
04   Rockin' Pneumonia And The Boogie Woogie Flu (1)
05   Groupie (1)
06   band intros
07   Hypnotize (1)
08   (I'm A) Roadrunner (1) (2)
09   Youngblood (1)(2)
10   Big Iron (2)
11   New Minglewood Blues (2)
13   Eyes Of The Night (2)
14   I Hear You Knockin' (2)
15   Juke (2)


Set II (2)

01   The Winners >
02   Festival >
03   Supplication Jam
04   Easy To Slip
05   City Girls
06   Salt Lake City
07   This Time For Ever @
08   Victim Or The Crime > @
09   Throwing Stones > @
10   Drums >
11   Willie And The Hand Jive
12   encore break

encore

13   Josephine




Matthew Kelly - harmonica, guitar, vocals
Barry Flast - keyboards, vocals
Steve Kimock - lead guitar
Anna Rizzo - vocals 
Steve Evans - bass
Jimmy Sanchez - drums
David Perper - drums

guests

Martin Fierro - saxophone (1)
Bob Weir - guitar, vocals (2), solo acoustic @



Comments:

Set I is probably incomplete.  It's most unlikely that they would have opened with "One Night Stand"



Thanks to Rick Martin for extracting the wavs and sending them to me


edited and mastered
SIRMick
April 2017


shntool output:

    length     expanded size    cdr  WAVE problems  fmt   ratio  filename
     4:54.32       51936908 B   ---   --   ---xx   flac  0.5361  kingfish1986-04-27s1t01.flac
     4:19.30       45758204 B   ---   --   ---xx   flac  0.5598  kingfish1986-04-27s1t02.flac
     3:11.72       33861788 B   ---   --   ---xx   flac  0.5446  kingfish1986-04-27s1t03.flac
     3:23.64       35959772 B   ---   --   ---xx   flac  0.5679  kingfish1986-04-27s1t04.flac
     3:26.06       36352556 B   ---   --   ---xx   flac  0.5597  kingfish1986-04-27s1t05.flac
     1:55.22       20337788 B   ---   --   ---xx   flac  0.4831  kingfish1986-04-27s1t06.flac
    11:13.63      118865420 B   ---   --   ---xx   flac  0.5699  kingfish1986-04-27s1t07.flac
     4:12.01       44455196 B   ---   --   ---xx   flac  0.5927  kingfish1986-04-27s1t08.flac
     3:52.37       41011868 B   ---   --   ---xx   flac  0.5561  kingfish1986-04-27s1t09.flac
     5:38.60       59764364 B   ---   --   ---xx   flac  0.5291  kingfish1986-04-27s1t10.flac
     5:56.19       62843132 B   ---   --   ---xx   flac  0.6126  kingfish1986-04-27s1t11.flac
     4:00.67       42493628 B   ---   --   ---xx   flac  0.5903  kingfish1986-04-27s1t12.flac
     4:14.29       44873852 B   ---   --   ---xx   flac  0.6031  kingfish1986-04-27s1t13.flac
     3:12.73       34040540 B   ---   --   ---xx   flac  0.6080  kingfish1986-04-27s1t14.flac
     3:52.35       41007164 B   ---   --   ---xx   flac  0.5868  kingfish1986-04-27s2t01.flac
     4:51.44       51435932 B   ---   --   ---xx   flac  0.6043  kingfish1986-04-27s2t02.flac
     7:17.29       77155052 B   ---   --   ---xx   flac  0.5972  kingfish1986-04-27s2t03.flac
     6:31.09       68993612 B   ---   --   ---xx   flac  0.5583  kingfish1986-04-27s2t04.flac
     3:53.60       41242364 B   ---   --   ---xx   flac  0.5793  kingfish1986-04-27s2t05.flac
     5:09.30       54578204 B   ---   --   ---xx   flac  0.6102  kingfish1986-04-27s2t06.flac
     3:42.62       39306668 B   ---   --   ---xx   flac  0.5130  kingfish1986-04-27s2t07.flac
     3:52.13       40955420 B   ---   --   ---xx   flac  0.5687  kingfish1986-04-27s2t08.flac
     8:42.36       92165516 B   ---   --   ---xx   flac  0.5505  kingfish1986-04-27s2t09.flac
     5:47.18       61253180 B   ---   --   ---xx   flac  0.5919  kingfish1986-04-27s2t10.flac
     8:21.36       88461116 B   ---   --   ---xx   flac  0.5858  kingfish1986-04-27s2t11.flac
     1:24.36       14902316 B   ---   --   ---xx   flac  0.4995  kingfish1986-04-27s2t12.flac
    10:33.62      111807068 B   ---   --   ---xx   flac  0.5607  kingfish1986-04-27s2t13.flac
   137:32.70     1455818628 B                            0.5713  (27 files)





More information about the bittorrent mailing list