[bittorrent] Doc Lane & Loose Change Mexicali Live Teaneck, New Jersey New 4/11/2017 (Schoeps CCM4V'S FOB)

Automated Mailer noreply-bt.e at etree.org
Wed Apr 12 22:59:33 UTC 2017


Band:           Other
Torrent Name:   Doc Lane & Loose Change Mexicali Live Teaneck, New Jersey New  4/11/2017 (Schoeps CCM4V'S FOB)
Uploaded by:    zmanatl
DB Link:        
Details:        http://bt.etree.org/details.php?id=592305

Contact the seeder at http://db.etree.org/zmanatl

If the link to this show does not work, it was probably removed for
being non-trade-friendly.

Description / text file:
-------------------------
Doc Lane & Loose Change
Mexicali Live
Teaneck, New Jersey
4/11/2017

Source: Schoeps CCM4V's>Lunatec V2>Benchmark AD2K>
Sound Devices 722 (24/44)
FOB/DFC/KFC/ZFC/AARP 16' From Stage, 6 1/2' High
DSP: Sound Devices 722>Sound Forge 10.0>CD Wave>flac(16)
ID3 Tagged In Foobar 2000
Recorded By: Z-Man
Seeded By: Z-Man

Disc I 

01 Christine Announcements And Introduction
02 Right Place, Wrone Time
03 Let Us Get Together >
04 Mystery Train >
05 Listen To The Music >
06 Walkin' Blues
07 ?
08 Cover Of The Rolling Stone
09 ?
10 Use Me
11 Sittin' On The Dock Of The Bay 
12 She's Not There >
13 ?
Encore:
14 Christine Banter
15 Do It Again  To My Heart

Daniel Lane - Guitar And Vocals
Alvin Harrison - Bass
Wes Jenson - Drums 
 
doclane2017-04-11d01t01.flac:aaa4efc2ddb0afb1af506be508ef09ac
doclane2017-04-11d01t02.flac:7ba17966a43d41af40d467d6346c4e32
doclane2017-04-11d01t03.flac:168d9430d6d5e144472596eef29ffbc8
doclane2017-04-11d01t04.flac:37d01f2e31b84ed4cd572c8ff0f96755
doclane2017-04-11d01t05.flac:f64c2fe4cbba8926cef79c4888fdb515
doclane2017-04-11d01t06.flac:08f89e98180aa8ef2835d9c46a890f8a
doclane2017-04-11d01t07.flac:305252391d999700b9cbee499e4e3c26
doclane2017-04-11d01t08.flac:cc326af402791f458b7ddd673aea9c4b
doclane2017-04-11d01t09.flac:67d067e787ac1cd55b0eda847e0833d9
doclane2017-04-11d01t10.flac:d00e108a5ee3424ba354e94dcdffb2bb
doclane2017-04-11d01t11.flac:8d635629696463a5c7d08a653073d45b
doclane2017-04-11d01t12.flac:ac4cd20376e5eb55727cfbed8ce244cb
doclane2017-04-11d01t13.flac:92ef47567ead3619ffe955daf5393955
doclane2017-04-11d01t14.flac:e276a58bc4efe5b5ba324470dc0eeaa9
doclane2017-04-11d01t15.flac:ecb4ccf7f5a16119712a3bf9891c4f3e

length     expanded size    cdr  WAVE problems  fmt   ratio  filename
     5:12.54       55163852 B   ---   --   ---xx   flac  0.3281  doclane2017-04-11d01t01.flac
     4:05.39       43309772 B   ---   --   ---xx   flac  0.5502  doclane2017-04-11d01t02.flac
     3:11.52       33814748 B   ---   --   ---xx   flac  0.5205  doclane2017-04-11d01t03.flac
     4:16.23       45212540 B   ---   --   ---xx   flac  0.5867  doclane2017-04-11d01t04.flac
     5:08.48       54444140 B   ---   --   ---xx   flac  0.5905  doclane2017-04-11d01t05.flac
     3:11.38       33781820 B   ---   --   ---xx   flac  0.5102  doclane2017-04-11d01t06.flac
     3:41.66       39139676 B   ---   --   ---xx   flac  0.5213  doclane2017-04-11d01t07.flac
     3:13.48       34158140 B   ---   --   ---xx   flac  0.5308  doclane2017-04-11d01t08.flac
     4:05.47       43328588 B   ---   --   ---xx   flac  0.5378  doclane2017-04-11d01t09.flac
     4:53.25       51744044 B   ---   --   ---xx   flac  0.5175  doclane2017-04-11d01t10.flac
     2:51.55       30293804 B   ---   --   ---xx   flac  0.4872  doclane2017-04-11d01t11.flac
     3:02.37       32191868 B   ---   --   ---xx   flac  0.5409  doclane2017-04-11d01t12.flac
     2:58.43       31500380 B   ---   --   ---xx   flac  0.5883  doclane2017-04-11d01t13.flac
     3:17.21       34800236 B   ---   --   ---xx   flac  0.3531  doclane2017-04-11d01t14.flac
     3:42.23       39214940 B   ---   --   ---xx   flac  0.5464  doclane2017-04-11d01t15.flac
    56:53.19      602098548 B                            0.5123  (15 files)





 









More information about the bittorrent mailing list