[bittorrent] ph1993-02-10.AKG 460b ck63.86562.flac16

Automated Mailer noreply-bt.e at etree.org
Wed Apr 12 22:12:26 UTC 2017


Band:           Phish
Torrent Name:   ph1993-02-10.AKG 460b ck63.86562.flac16
Uploaded by:    beerman
DB Link:        
Details:        http://bt.etree.org/details.php?id=592302

Contact the seeder at http://db.etree.org/beerman

If the link to this show does not work, it was probably removed for
being non-trade-friendly.

Description / text file:
-------------------------
Phish
February 10, 1993
Smith Opera House
Geneva, NY

source:
AKG 460b/ck63 > Teac DA-P20 (@ 48 kHz)

transfer:
Tascam DA-20MKII > Tascam HD-P2 > CF card > usb 2.0 > pc > WaveLab 5.01b (de-emphasis, fades, resample to 44.1 kHz) > CD Wave v1.95.1 > FLAC v1.1.4 (Level 8)

FLAC tags added with metaflac v1.1.4

recorded by Terry Sullivan
transferred by Jason Sobel (jasonsobel at gmail.com)
seeded July 24, 2007

notes:
The original DAT recording was made with pre-emphasis.
The Waves Q10 Paragraphic EQ v5.0 plug-in was used to de-emphasize the recording.
The original 48 kHz .wav files from the DAT transfer have been archived, and are available upon request.
Big thanks to Dave Flaschner for letting me borrow his DAT tape!

Disc 1 - [78:38]
Set I
01 - [06:09] - Loving Cup
02 - [08:58] - Foam
03 - [07:03] - Guelah Papyrus
04 - [12:06] - Reba
05 - [03:40] - The Sloth
06 - [13:29] - The Divided Sky
07 - [06:36] - Tela
08 - [04:58] - Llama
09 - [04:22] - I Didn't Know >
10 - [00:40] - Catapult
11 - [10:37] - Run Like an Antelope

Disc 2 - [68:05]
Set II
01 - [09:04] - Runaway Jim
02 - [07:45] - It's Ice
03 - [08:13] - The Squirming Coil
04 - [09:46] - Tweezer
05 - [02:32] - I Walk the Line
06 - [04:02] - Sparkle
07 - [19:45] - You Enjoy Myself >
08 - [01:50] - The Horse >
09 - [05:09] - Silent in the Morning

Disc 3 - [24:16]
Set II continued
01 - [01:25] - HYHU >
02 - [02:51] - Cracklin' Rosie >
03 - [00:50] - HYHU
04 - [08:37] - Possum
05 - [03:02] - encore break
06 - [02:18] - Sweet Adeline
07 - [02:03] - Amazing Grace
08 - [03:12] - Tweezer Reprise

show notes:
Sweet Adeline and Amazing Grace were performed without microphones.
Catapult was played for the first time since April 21, 1992 (95 shows).

----------------------------------------------------------------------------

SHNtool output:

    length     expanded size   cdr  WAVE problems filename
     6:09.06       65105756    ---   --   ---xx   ph1993-02-10d1t01.flac
     8:57.54       94853852    ---   --   ---xx   ph1993-02-10d1t02.flac
     7:03.19       74661932    ---   --   ---xx   ph1993-02-10d1t03.flac
    12:06.25      128125244    ---   --   ---xx   ph1993-02-10d1t04.flac
     3:39.54       38758652    ---   --   ---xx   ph1993-02-10d1t05.flac
    13:29.03      142714700    ---   --   ---xx   ph1993-02-10d1t06.flac
     6:35.43       69779180    ---   --   ---xx   ph1993-02-10d1t07.flac
     4:58.00       52567244    ---   --   ---xx   ph1993-02-10d1t08.flac
     4:22.18       46259180    ---   --   ---xx   ph1993-02-10d1t09.flac
     0:40.27        7119548    ---   --   ---xx   ph1993-02-10d1t10.flac
    10:36.51      112310396    ---   --   ---xx   ph1993-02-10d1t11.flac
     9:03.41       95881676    ---   --   ---xx   ph1993-02-10d2t01.flac
     7:44.44       81953132    ---   --   ---xx   ph1993-02-10d2t02.flac
     8:13.19       87009932    ---   --   ---xx   ph1993-02-10d2t03.flac
     9:46.33      103448060    ---   --   ---xx   ph1993-02-10d2t04.flac
     2:32.06       26826956    ---   --   ---xx   ph1993-02-10d2t05.flac
     4:01.67       42670028    ---   --   ---xx   ph1993-02-10d2t06.flac
    19:44.38      208947020    ---   --   ---xx   ph1993-02-10d2t07.flac
     1:49.43       19328780    ---   --   ---xx   ph1993-02-10d2t08.flac
     5:08.50       54448844    ---   --   ---xx   ph1993-02-10d2t09.flac
     1:25.03       15001100    ---   --   ---xx   ph1993-02-10d3t01.flac
     2:50.44       30091532    ---   --   ---xx   ph1993-02-10d3t02.flac
     0:49.56        8775356    ---   --   ---xx   ph1993-02-10d3t03.flac
     8:36.39       91114172    ---   --   ---xx   ph1993-02-10d3t04.flac
     3:01.54       32055452    ---   --   ---xx   ph1993-02-10d3t05.flac
     2:18.07       24359708    ---   --   ---xx   ph1993-02-10d3t06.flac
     2:02.57       21654908    ---   --   ---xx   ph1993-02-10d3t07.flac
     3:11.64       33842972    ---   --   ---xx   ph1993-02-10d3t08.flac
   170:58.65     1809665312 B                     (totals for 28 files, 0.5311 overall compression ratio)



More information about the bittorrent mailing list