[bittorrent] jg1983-11-27.jgb.s1partial.aud.138119.flac1644

Automated Mailer noreply-bt.e at etree.org
Sun Apr 9 22:03:23 UTC 2017


Band:           Garcia
Torrent Name:   jg1983-11-27.jgb.s1partial.aud.138119.flac1644
Uploaded by:    nfagdtrfb
DB Link:        
Details:        http://bt.etree.org/details.php?id=592270

Contact the seeder at http://db.etree.org/nfagdtrfb

If the link to this show does not work, it was probably removed for
being non-trade-friendly.

Description / text file:
-------------------------
JERRY GARCIA BAND
Constitution Hall
Washington DC
11-27-1983
1st Set - Partial

s1t01 I'll Take a Melody
s1t02 Cats Under the Stars
s1t03 Knockin' On Heaven's Door/

Unknown AUD (1st or low-gen) kindly provided from the collection of DL.

Transfer: Maxell XLII > Nakamichi CR-5A > Edirol FA-66 > Wavelab 2448 > 
R8Brain > CD-Wave > TLH > FLAC 1644 tagged. Transfer by Andrew F. 04/2017

Note on the label says taper was thrown out. This small fragment dedicated 
to the brave souls who took the risks and got strong-armed out of shows...

    length     expanded size    cdr  WAVE problems  fmt   ratio  filename
    13:33.68      143573180 B   ---   --   ---xx   flac  0.5971  jgb1983-11-27s1t01.flac
     8:43.61       92400716 B   ---   --   ---xx   flac  0.5966  jgb1983-11-27s1t02.flac
     6:39.01       70385996 B   ---   --   ---xx   flac  0.5537  jgb1983-11-27s1t03.flac
    28:56.55      306359892 B                            0.5870  (3 files)

No errors occured.




More information about the bittorrent mailing list