[bittorrent] moe. - 2017-04-08 - The Sinclair - Cambridge, MA - DPA 4011 > V3 > R44 - 2448 [FIXED TORRENT]

Automated Mailer noreply-bt.e at etree.org
Sun Apr 9 17:44:31 UTC 2017


Band:           moe.
Torrent Name:   moe. - 2017-04-08 - The Sinclair - Cambridge, MA - DPA 4011 > V3 > R44 - 2448  [FIXED TORRENT]
Uploaded by:    bvaz
DB Link:        
Details:        http://bt.etree.org/details.php?id=592264

Contact the seeder at http://db.etree.org/bvaz

If the link to this show does not work, it was probably removed for
being non-trade-friendly.

Description / text file:
-------------------------
moe.
2017-04-08
The Sinclair
Cambridge, MA

DPA 4011 > V3 > R44 (24/48)
SDHC Card > Sound Forge Pro 2.5 (fades, tracking) > xAct (Flac level 8, tagging)
DIN/left corner of FOH/approx. 8’ high

Taped and Transferred by Brian V.

Set 1

01. Zed Naught Z > 
02. Same Old Story > 
03. Bring You Down
04. Water intro
05. Chromatic Nightmare
06. Captain America
07. Montego9
08. Where Does The Time Go? > 
09. Water

Set 2

01. Kids > 
02. Lazarus
03. Letter Home > 
04. Faker > 
05. Same Old Story > 
06. Zed Naught Z
07. Gone > 
08. Deep This Time

Set 3

01. Skrunk > 
02. Kids
03. banter
04. Buster
05. Angel
06. St. Augustine > 
07. Same Old Story
08. encore break
09. al.nouncements
10. Aqueous song$
11. banter/crowd
12. Comfortably Numb

$ Aqueous was brought up to play a song.
thanks to bhtoque (Jason) for the clamp space

***Support Bands That Allow Taping/Trading***

shntool output
    length     expanded size    cdr  WAVE problems  fmt   ratio  filename
     4:37.675      79970348 B   cxx   --   -----    wav  1.0000  moe2017-04-08s1t01.wav
     6:28.053     111759404 B   cxx   --   -----    wav  1.0000  moe2017-04-08s1t02.wav
    14:14.080     245975084 B   cxx   --   -----    wav  1.0000  moe2017-04-08s1t03.wav
     0:37.952      10930220 B   cxx   --   -----    wav  1.0000  moe2017-04-08s1t04.wav
     5:28.192      94519340 B   cxx   --   -----    wav  1.0000  moe2017-04-08s1t05.wav
     5:59.637     103575596 B   cxx   --   -----    wav  1.0000  moe2017-04-08s1t06.wav
    11:31.051     199022636 B   cxx   --   -----    wav  1.0000  moe2017-04-08s1t07.wav
     6:14.869     107962412 B   cxx   --   -----    wav  1.0000  moe2017-04-08s1t08.wav
     7:39.083     132215852 B   cxx   --   -----    wav  1.0000  moe2017-04-08s1t09.wav
     5:05.408      87957548 B   cxx   --   -----    wav  1.0000  moe2017-04-08s2t01.wav
    12:03.307     208312364 B   cxx   --   -----    wav  1.0000  moe2017-04-08s2t02.wav
     3:54.261      67467308 B   cxx   --   -----    wav  1.0000  moe2017-04-08s2t03.wav
    15:04.491     260493356 B   cxx   --   -----    wav  1.0000  moe2017-04-08s2t04.wav
     1:36.768      27869228 B   cxx   --   -----    wav  1.0000  moe2017-04-08s2t05.wav
     6:27.563     111618092 B   cxx   --   -----    wav  1.0000  moe2017-04-08s2t06.wav
     8:09.664     141023276 B   cxx   --   -----    wav  1.0000  moe2017-04-08s2t07.wav
     6:06.979     105689900 B   cxx   --   -----    wav  1.0000  moe2017-04-08s2t08.wav
     6:41.920     115753004 B   cxx   --   -----    wav  1.0000  moe2017-04-08s3t01.wav
    13:08.992     227229740 B   cxx   --   -----    wav  1.0000  moe2017-04-08s3t02.wav
    14:54.400     257587244 B   cxx   --   -----    wav  1.0000  moe2017-04-08s3t03.wav
     5:31.605      95502380 B   cxx   --   -----    wav  1.0000  moe2017-04-08s3t04.wav
     7:55.712     137005100 B   cxx   --   -----    wav  1.0000  moe2017-04-08s3t05.wav
     3:57.504      68401196 B   cxx   --   -----    wav  1.0000  moe2017-04-08s3t06.wav
     2:33.728      44273708 B   cxx   --   -----    wav  1.0000  moe2017-04-08s3t07.wav
     3:07.392      53968940 B   cxx   --   -----    wav  1.0000  moe2017-04-08s3t08.wav
     7:53.739     136436780 B   cxx   --   -----    wav  1.0000  moe2017-04-08s3t09.wav
     7:52.139     135975980 B   cxx   --   -----    wav  1.0000  moe2017-04-08s3t10.wav
   194:56.163    3368496036 B                            1.0000  (27 files)




More information about the bittorrent mailing list