[bittorrent] jg1981-11-03.jgb.aud.138177.flac1644

Automated Mailer noreply-bt.e at etree.org
Sun Apr 9 01:55:09 UTC 2017


Band:           Garcia
Torrent Name:   jg1981-11-03.jgb.aud.138177.flac1644
Uploaded by:    nfagdtrfb
DB Link:        
Details:        http://bt.etree.org/details.php?id=592241

Contact the seeder at http://db.etree.org/nfagdtrfb

If the link to this show does not work, it was probably removed for
being non-trade-friendly.

Description / text file:
-------------------------
JERRY GARCIA BAND
Painters Mill
Owings Mills MD
11-03-1981

s1t01 Sugaree
s1t02 I'll Take a Melody
s1t03 The Way You Do the Things You Do
s1t04 Valerie
s1t05 Mystery Train
s1t06 Tangled Up /in Blue

s2t01 The Harder They Come
s2t02 Knockin' On Heaven's Door
s2t03 Don't Let Go
s2t04 The Night They Drove /Old Dixie Down
s2t05 Dear Prudence
s2t06 Midnight Moonlight

Set One: AUD (marked 2nd Gen) kindly provided by wk & http://jgmf.blogspot.com/ 
Set Two: AUD (unknown lineage) kindly provided from the collection of DL.

Transfer: Maxell XLII's > Nakamichi CR-5A > Edirol FA-66 > Wavelab 2448 > 
R8Brain > CD-Wave > TLH > FLAC 1644 tagged. Transfer by Andrew F. 04/2017

Note: This is a composite of two different AUD recordings. Caveat, both tapes 
sound a bit rough... Skip in TUIB at 1:57. Tape-flip in TUIB at 4:30, about 
15 seconds missing. Tape-flip in TNTDODD at 4:55, about 45 seconds missing.

    length     expanded size    cdr  WAVE problems  fmt   ratio  filename
    10:01.40      106110524 B   ---   --   ---xx   flac  0.5761  jgb1981-11-03s1t01.flac
    11:11.12      118392668 B   ---   --   ---xx   flac  0.5575  jgb1981-11-03s1t02.flac
     6:40.15       70595324 B   ---   --   ---xx   flac  0.5862  jgb1981-11-03s1t03.flac
     6:19.49       66970892 B   ---   --   ---xx   flac  0.5732  jgb1981-11-03s1t04.flac
     8:02.14       85057772 B   ---   --   ---xx   flac  0.5849  jgb1981-11-03s1t05.flac
     9:49.34      103979612 B   ---   --   ---xx   flac  0.6002  jgb1981-11-03s1t06.flac
    12:30.72      132469388 B   ---   --   ---xx   flac  0.6445  jgb1981-11-03s2t01.flac
    14:26.74      152936492 B   ---   --   ---xx   flac  0.6286  jgb1981-11-03s2t02.flac
    14:00.00      148176044 B   ---   --   ---xx   flac  0.6341  jgb1981-11-03s2t03.flac
     7:48.28       82621100 B   ---   --   ---xx   flac  0.6229  jgb1981-11-03s2t04.flac
    13:17.12      140619068 B   ---   --   ---xx   flac  0.6144  jgb1981-11-03s2t05.flac
     8:17.47       87781388 B   ---   --   ---xx   flac  0.6254  jgb1981-11-03s2t06.flac
   122:25.22     1295710272 B                            0.6076  (12 files)

No errors occured.




More information about the bittorrent mailing list