[bittorrent] moe. - 2017-04-06 - The Sinclair - Cambridge, MA - DPA 4011 > V3 > R44 - 2448

Automated Mailer noreply-bt.e at etree.org
Sat Apr 8 14:04:32 UTC 2017


Band:           moe.
Torrent Name:   moe. - 2017-04-06 - The Sinclair - Cambridge, MA - DPA 4011 > V3 > R44 - 2448
Uploaded by:    bvaz
DB Link:        
Details:        http://bt.etree.org/details.php?id=592227

Contact the seeder at http://db.etree.org/bvaz

If the link to this show does not work, it was probably removed for
being non-trade-friendly.

Description / text file:
-------------------------
moe.
2017-04-06
The Sinclair
Cambridge, MA

DPA 4011 > V3 > R44 (24/48)
SDHC Card > Sound Forge Pro 2.5 (fades, tracking) > xAct (Flac level 8, tagging)
DIN/left corner of FOH/approx. 8’ high

Taped and Transferred by Brian V.

Set 1

01. Crab Eyes >
02. Threw It All Away >
03. Crab Eyes >
04. the Ghost of Ralph’s Mom
05. Runaway Overlude
06. The Road >
07. Head >
08. The Road
09. Wind It Up

Set 2

01. White Lightning Turpentine >
02. Cornflake Girl
03. crowd/banter
04. Cathedral
05. crowd/banter
06. Yodelittle >
07. Don’t Fuck With Flo >
08. Silver Sun
09. encore break
10. al.nouncements
11. Kyle’s Song
12. One Way Out

thanks to bhtoque (Jason) for the clamp space

***Support Bands That Allow Taping/Trading***

shntool output
    length     expanded size    cdr  WAVE problems  fmt   ratio  filename
     5:30.411      95158316 B   cxx   --   -----    wav  1.0000  moe2017-04-06s1t01.wav
     5:29.643      94937132 B   cxx   --   -----    wav  1.0000  moe2017-04-06s1t02.wav
     7:03.936     122093612 B   cxx   --   -----    wav  1.0000  moe2017-04-06s1t03.wav
     5:24.683      93508652 B   cxx   --   -----    wav  1.0000  moe2017-04-06s1t04.wav
     8:07.040     140267564 B   cxx   --   -----    wav  1.0000  moe2017-04-06s1t05.wav
     3:34.411      61750316 B   cxx   --   -----    wav  1.0000  moe2017-04-06s1t06.wav
    15:23.349     265924652 B   cxx   --   -----    wav  1.0000  moe2017-04-06s1t07.wav
    10:01.899     173346860 B   cxx   --   -----    wav  1.0000  moe2017-04-06s1t08.wav
     7:58.464     137797676 B   cxx   --   -----    wav  1.0000  moe2017-04-06s1t09.wav
     5:16.331      91103276 B   cxx   --   -----    wav  1.0000  moe2017-04-06s2t01.wav
     9:20.640     161464364 B   cxx   --   -----    wav  1.0000  moe2017-04-06s2t02.wav
     1:35.979      27641900 B   cxx   --   -----    wav  1.0000  moe2017-04-06s2t03.wav
     5:39.477      97769516 B   cxx   --   -----    wav  1.0000  moe2017-04-06s2t04.wav
     1:38.901      28483628 B   cxx   --   -----    wav  1.0000  moe2017-04-06s2t05.wav
    20:43.904     358244396 B   cxx   --   -----    wav  1.0000  moe2017-04-06s2t06.wav
    15:58.379     276013100 B   cxx   --   -----    wav  1.0000  moe2017-04-06s2t07.wav
    16:04.547     277789436 B   cxx   --   -----    wav  1.0000  moe2017-04-06s2t08.wav
     3:45.107      64830812 B   cxx   --   -----    wav  1.0000  moe2017-04-06s2t09.wav
     2:19.328      40126508 B   cxx   --   -----    wav  1.0000  moe2017-04-06s2t10.wav
     9:41.312     167417900 B   cxx   --   -----    wav  1.0000  moe2017-04-06s2t11.wav
     6:51.584     118536236 B   cxx   --   -----    wav  1.0000  moe2017-04-06s2t12.wav
   167:29.323    2894205852 B                            1.0000  (21 files)



More information about the bittorrent mailing list