[bittorrent] moe. - 2017-04-05 - The Sinclair - Cambridge, MA - DPA 4011 > V3 > R44 - 2448

Automated Mailer noreply-bt.e at etree.org
Sat Apr 8 14:04:28 UTC 2017


Band:           moe.
Torrent Name:   moe. - 2017-04-05 - The Sinclair - Cambridge, MA - DPA 4011 > V3 > R44 - 2448
Uploaded by:    bvaz
DB Link:        
Details:        http://bt.etree.org/details.php?id=592226

Contact the seeder at http://db.etree.org/bvaz

If the link to this show does not work, it was probably removed for
being non-trade-friendly.

Description / text file:
-------------------------
moe.
2017-04-06
The Sinclair
Cambridge, MA

DPA 4011 > V3 > R44 (24/48)
SDHC Card > Sound Forge Pro 2.5 (fades, tracking) > xAct (Flac level 8, tagging)
DIN/left corner of FOH/approx. 8’ high

Taped and Transferred by Brian V.

Set 1

01. Crab Eyes >
02. Threw It All Away >
03. Crab Eyes >
04. the Ghost of Ralph’s Mom
05. Runaway Overlude
06. The Road >
07. Head >
08. The Road
09. Wind It Up

Set 2

01. White Lightning Turpentine >
02. Cornflake Girl
03. crowd/banter
04. Cathedral
05. crowd/banter
06. Yodelittle >
07. Don’t Fuck With Flo >
08. Silver Sun
09. encore break
10. al.nouncements
11. Kyle’s Song
12. One Way Out

thanks to bhtoque (Jason) for the clamp space

***Support Bands That Allow Taping/Trading***

shntool output
    length     expanded size    cdr  WAVE problems  fmt   ratio  filename
    11:48.181     203956268 B   cxx   --   -----    wav  1.0000  moe2017-04-05s1t01.wav
    15:43.701     271786028 B   cxx   --   -----    wav  1.0000  moe2017-04-05s1t02.wav
     8:05.109     139711532 B   cxx   --   -----    wav  1.0000  moe2017-04-05s1t03.wav
    10:22.773     179358764 B   cxx   --   -----    wav  1.0000  moe2017-04-05s1t04.wav
     6:47.211     117276716 B   cxx   --   -----    wav  1.0000  moe2017-04-05s1t05.wav
    10:43.392     185296940 B   cxx   --   -----    wav  1.0000  moe2017-04-05s1t06.wav
    21:03.637     363927596 B   cxx   --   -----    wav  1.0000  moe2017-04-05s1t07.wav
    15:20.800     265190444 B   cxx   --   -----    wav  1.0000  moe2017-04-05s2t01.wav
     1:26.144      24809516 B   cxx   --   -----    wav  1.0000  moe2017-04-05s2t02.wav
     8:23.627     145044524 B   cxx   --   -----    wav  1.0000  moe2017-04-05s2t03.wav
     2:36.885      45183020 B   cxx   --   -----    wav  1.0000  moe2017-04-05s2t04.wav
    10:44.096     185499692 B   cxx   --   -----    wav  1.0000  moe2017-04-05s2t05.wav
     9:53.643     170969132 B   cxx   --   -----    wav  1.0000  moe2017-04-05s2t06.wav
    12:36.693     217927724 B   cxx   --   -----    wav  1.0000  moe2017-04-05s2t07.wav
     2:58.795      51492908 B   cxx   --   -----    wav  1.0000  moe2017-04-05s2t08.wav
     4:20.309      74969132 B   cxx   --   -----    wav  1.0000  moe2017-04-05s2t09.wav
     6:15.851     108245036 B   cxx   --   -----    wav  1.0000  moe2017-04-05s2t10.wav
    12:49.109     221503532 B   cxx   --   -----    wav  1.0000  moe2017-04-05s2t11.wav
     6:42.432     115900460 B   cxx   --   -----    wav  1.0000  moe2017-04-05s2t12.wav
   178:42.389    3088048964 B                            1.0000  (19 files)



More information about the bittorrent mailing list