[bittorrent] banana2017-03-31.csc.sirmick.flac16 E

Automated Mailer noreply-bt.e at etree.org
Sat Apr 8 08:32:25 UTC 2017


Band:           Other
Torrent Name:   banana2017-03-31.csc.sirmick.flac16 E
Uploaded by:     SIRMick
DB Link:        
Details:        http://bt.etree.org/details.php?id=592219

Contact the seeder at http://db.etree.org/ SIRMick

If the link to this show does not work, it was probably removed for
being non-trade-friendly.

Description / text file:
-------------------------
Lowell Levinger aka Banana
Basement Room
Green Note
London, England
03/30/2017


Source: Core Sound Cardiods > Core Sound Battery Box > Tascam DR-100mkIII > wav 24/176.4
Lineage: wav 24/176.4 > Adobe Audition 3.01 > iZotope RX4 Advanced > iZotope Ozone 5 >
         iZotope RX4 Advanced > wav 16/44.1 > CDWave > TLH > Flac16 



Set I

01   intro
02   Sugar Babe
03   Less Than The Song
04   Railroad Boy
05   The Wine Song
06   Millionaire
07   Give The Fiddler A Dram
08   Riding With The King
09   East Virginia Blues
10   The Singer/Songwriter's Lament
11   1952 Vincent Black Lightning
12   "I always forget"


Set II

01   //Old Ebenezer Scrooge
02   The Cuckoo
03   A Voice On The Wind
04   Rocks Into Sand
05   I'm Already Married To The Blues
06   Love Is A Five Letter Word
07   Reason To Believe
08   Bound To Lose
09   I've Been All Around This World
10   Darkness, Darkness
11   Get Together




comments:

The Green Note is a wonderful venue to see performers such as Banana, it's very intimate.
The Basement holds, I think, a maximum of 21 but on this night there were only 9 of us, 10 if you include
the young lady behind the bar, and I knew 3 of the others.  How many times have you been to a gig and
known a third of the audience!  Upstairs, where I saw him in 2014, is a little bigger but not by much.

He's a very interesting person and we chatted to him for quite some time before he got on to play.

Lowell sat on a chair with his guitar and just a vocal mic and thoroughly entertained us.  I was sitting maybe
10 feet away from him but others were as close as 4 or 5 feet.  He told us that he prefered small audiences
close up because he liked to look at the faces to see how they were reacting to his performance.


Notes:

Unfortunately I made a rookie mistake of occasionally placing my mobile phone next to my recorder, 
which resulted in some electrical interference.  I have been able to remove some of it without being too
destructive to the music but some is still noticeable.

There's an extremely rough sounding patch near the start of "The Cuckoo" and I've no idea what caused it.

During the course of the performance you'll hear a number of bumps and thumps. Most of these came from
behind the bar I think.

At the start of Set II Lowell started playing without any announcement, the house music was still playing
and people were talking.  So I've cut the first 30 seconds or so off and faded track 1 in.

There was a story attached to most songs so I've tracked this so that they go with the song, whether before or after.


Thanks to Lowell for allowing me to record him.



recorded, edited and mastered
SIRMick
April 2017


shntool output:

    length     expanded size    cdr  WAVE problems  fmt   ratio  filename
     0:46.45        8220284 B   ---   --   ---xx   flac  0.4585  banana2017-03-31s1t01.flac
     3:42.37       39247868 B   ---   --   ---xx   flac  0.4811  banana2017-03-31s1t02.flac
     4:00.56       42467756 B   ---   --   ---xx   flac  0.4698  banana2017-03-31s1t03.flac
     3:39.05       38643404 B   ---   --   ---xx   flac  0.4660  banana2017-03-31s1t04.flac
     4:59.17       52783628 B   ---   --   ---xx   flac  0.4577  banana2017-03-31s1t05.flac
     5:30.11       58237916 B   ---   --   ---xx   flac  0.4611  banana2017-03-31s1t06.flac
     3:51.25       40807244 B   ---   --   ---xx   flac  0.4732  banana2017-03-31s1t07.flac
     4:58.19       52611932 B   ---   --   ---xx   flac  0.4859  banana2017-03-31s1t08.flac
     4:57.74       52564892 B   ---   --   ---xx   flac  0.4511  banana2017-03-31s1t09.flac
     4:26.41       47018876 B   ---   --   ---xx   flac  0.4624  banana2017-03-31s1t10.flac
     6:29.65       68772524 B   ---   --   ---xx   flac  0.4697  banana2017-03-31s1t11.flac
     0:59.43       10508780 B   ---   --   ---xx   flac  0.4428  banana2017-03-31s1t12.flac
     1:28.10       15546764 B   ---   --   ---xx   flac  0.4754  banana2017-03-31s2t01.flac
     5:49.60       61704764 B   ---   --   ---xx   flac  0.4726  banana2017-03-31s2t02.flac
     4:07.30       43641404 B   ---   --   ---xx   flac  0.4526  banana2017-03-31s2t03.flac
     5:18.62       56241068 B   ---   --   ---xx   flac  0.4524  banana2017-03-31s2t04.flac
     5:57.07       62991308 B   ---   --   ---xx   flac  0.4696  banana2017-03-31s2t05.flac
     3:55.57       41588108 B   ---   --   ---xx   flac  0.4536  banana2017-03-31s2t06.flac
     3:16.49       34689692 B   ---   --   ---xx   flac  0.4490  banana2017-03-31s2t07.flac
     6:59.15       73946924 B   ---   --   ---xx   flac  0.4610  banana2017-03-31s2t08.flac
     2:56.51       31166396 B   ---   --   ---xx   flac  0.4669  banana2017-03-31s2t09.flac
     6:45.41       71538476 B   ---   --   ---xx   flac  0.4358  banana2017-03-31s2t10.flac
     5:48.33       61464860 B   ---   --   ---xx   flac  0.4594  banana2017-03-31s2t11.flac
   100:45.28     1066404868 B                            0.4620  (23 files)






More information about the bittorrent mailing list