[bittorrent] Anthony D'Amato Solo Acoustic City Winery New York City, New York 4/4/2017 (Schoeps CCM4V'S FOB)

Automated Mailer noreply-bt.e at etree.org
Wed Apr 5 16:35:00 UTC 2017


Band:           Other
Torrent Name:   Anthony D'Amato Solo Acoustic City Winery New York City, New York 4/4/2017 (Schoeps CCM4V'S FOB)
Uploaded by:    zmanatl
DB Link:        
Details:        http://bt.etree.org/details.php?id=592173

Contact the seeder at http://db.etree.org/zmanatl

If the link to this show does not work, it was probably removed for
being non-trade-friendly.

Description / text file:
-------------------------
Anthony D'Amato Solo Acoustic
City Winery
New York City, New York
4/4/2017

Source: Schoeps CCM4V's>Lunatec V2>Benchmark AD2K>
Sound Devices 722 (24/44)
BOB/DFC/KFC/ZFC/AARP Clamped To The Beam, 25' From Stage, 6 1/2' High
DSP: Sound Devices 722>Sound Forge 10.0>CD Wave>flac(16)
ID3 Tagged In Foobar 2000
Recorded By: Z-Man
Seeded By: Z-Man

Disc I

01 Announcement
02 Introduction
03 ?
04 I Wanna Wake Up Alive Next To You
05 Banter About Guitar Strap
06 Honey That's Not All
07 Rain On A Strang Roof
08 ?
09 Ballad Of The Undecided

anthony2017-04-04d01t01.flac:d47c5a62b06aa5e60da778da7c539f59
anthony2017-04-04d01t02.flac:4854ba44ef61f22e3e566c216fb03218
anthony2017-04-04d01t03.flac:e92cd649e908145e6256352ad05e581d
anthony2017-04-04d01t04.flac:fc935b7c5806820e23ab66e5754c3a13
anthony2017-04-04d01t05.flac:1b6817bfe5802e8137588716f4b67e62
anthony2017-04-04d01t06.flac:aa6e981b7714b9e69f49e3f35313390f
anthony2017-04-04d01t07.flac:b024ff117857495166de9a240413c20d
anthony2017-04-04d01t08.flac:c64a5531e4ccd61a3c91932df1a8af5f
anthony2017-04-04d01t09.flac:674b8ba9e345203478a37aeb5cedf9da

length     expanded size    cdr  WAVE problems  fmt   ratio  filename
     0:26.57        4720508 B   ---   --   ---xx   flac  0.4026  anthony2017-04-04d01t01.flac
     1:04.30       11360204 B   ---   --   ---xx   flac  0.3819  anthony2017-04-04d01t02.flac
     4:05.54       43345052 B   ---   --   ---xx   flac  0.3961  anthony2017-04-04d01t03.flac
     4:32.64       48131372 B   ---   --   ---xx   flac  0.4542  anthony2017-04-04d01t04.flac
     1:55.20       20333084 B   ---   --   ---xx   flac  0.3642  anthony2017-04-04d01t05.flac
     3:48.58       40355660 B   ---   --   ---xx   flac  0.3833  anthony2017-04-04d01t06.flac
     4:25.59       46884812 B   ---   --   ---xx   flac  0.4538  anthony2017-04-04d01t07.flac
     4:55.64       52188572 B   ---   --   ---xx   flac  0.3822  anthony2017-04-04d01t08.flac
     5:38.68       59783180 B   ---   --   ---xx   flac  0.5151  anthony2017-04-04d01t09.flac
    30:54.24      327102444 B                            0.4285  (9 files)









More information about the bittorrent mailing list