[bittorrent] Widespread Panic 94-07-13 Matrix, new source

Automated Mailer noreply-bt.e at etree.org
Wed Apr 5 10:57:37 UTC 2017


Band:           Widespread Panic
Torrent Name:   Widespread Panic 94-07-13 Matrix, new source
Uploaded by:    JayH
DB Link:        
Details:        http://bt.etree.org/details.php?id=592163

Contact the seeder at http://db.etree.org/JayH

If the link to this show does not work, it was probably removed for
being non-trade-friendly.

Description / text file:
-------------------------
Widespread Panic
Wednesday, July 13th, 1994
Waldo Astoria Theater
Kansas City, MO

Matrix by jeh253 at gmail.com 2017.04.04

Source 1: Source: SBD > DAT @ 48.0khz
Transfer: Tascam DA-45HR > Audiophile 24/96 USB > Cool Edit 2000 > CDWave > FLAC(level 6)
Resampled(48>44.1) and Fades Added in Cool Edit, and Tracked in CDWave
Converted & edited by D.P. Swint
Seeded by Patrick Wood

Source 2: AKG C451EB/ CK1's (DIN/DFC directly behind SBD) -> Whirlwind Phantoms -> Teac DA-P20 @48kHz
Transfer: Fostex D-5-> Tascam HD-P2-> HDD-> Aucacity (tracking/fades)-> xACT (flac6)-> .wav-> WaveLab-> flac16 (ASB)
Recorded, transferred by Mike Darby

Thanks to Tom M (bienviaje at hotmail.com) for the sources, the inspiration and the critical listening.


01 Intro
02 Holden Oversoul >
03 C. Brown
04 Wonderin' >
05 Henry Parsons Died
06 Can't Get High >
07 Little Kin
08 Driving Song >
09 Disco >
10 Driving Song >
11 Walkin'
12 City of Dreams >
13 Fishwater
14 Blackout
15 Diner >
16 Space Wrangler >
17 Proving Ground
Encore
18 Pigeons!

Show Notes: 
-- Salty Iguanas opened
-- One long set
-- After Fishwater, JB introduces Jojo, his brother in law to the crowd.
-- There is a Conrad rap at the end of Space Wrangler.


Matrix Production Notes:
1) 8.846 seconds missing from audience source, 12.5 seconds in to C.Brown. 3 Second fade in/out applied.
2) Soundboard source missing approximately 2 minutes and 52 seconds between end of set and encore. No fades applied as levels were very low at the boundaries.


shntool output:
    length     expanded size    cdr  WAVE problems  fmt   ratio  filename
     1:38.41       17383676 B   ---   --   ---xx   flac  0.4825  01 intro.flac
     6:14.62       66119468 B   ---   --   ---xx   flac  0.6209  02 Holden Oversoul.flac
     7:59.19       84540332 B   ---   --   ---xx   flac  0.5780  03 C. Brown.flac
     4:08.54       43874252 B   ---   --   ---xx   flac  0.6292  04 Wondering.flac
     6:13.00       65797244 B   ---   --   ---xx   flac  0.6188  05 Henry Parsons Died.flac
     3:45.40       39784124 B   ---   --   ---xx   flac  0.6054  06 Can't Get High.flac
     7:00.00       74088044 B   ---   --   ---xx   flac  0.5737  07 Little Kin.flac
     4:36.20       48733484 B   ---   --   ---xx   flac  0.5413  08 Driving Song.flac
     6:00.74       63678092 B   ---   --   ---xx   flac  0.5833  09 Disco.flac
     2:40.53       28348700 B   ---   --   ---xx   flac  0.5621  10 Driving Song.flac
     5:13.58       55349660 B   ---   --   ---xx   flac  0.5975  11 Walkin'.flac
     7:29.06       79217756 B   ---   --   ---xx   flac  0.5392  12 City of Dreams.flac
     9:02.30       95679404 B   ---   --   ---xx   flac  0.6067  13 Fishwater.flac
     6:15.67       66307628 B   ---   --   ---xx   flac  0.5675  14 Blackout.flac
     9:27.70      100183484 B   ---   --   ---xx   flac  0.5988  15 Diner.flac
    10:54.10      115389164 B   ---   --   ---xx   flac  0.5865  16 Space Wrangler.flac
    10:32.54      111611852 B   ---   --   ---xx   flac  0.5526  17 Proving Ground.flac
    12:18.39      130274972 B   ---   --   ---xx   flac  0.5563  18 Pigeons.flac
   121:32.22     1286361336 B                            0.5799  (18 files)




More information about the bittorrent mailing list