[bittorrent] Wolf! Rockwood Music Hall New York City, New York 4/3/2017 (Schoeps CCM4V'S FOB)

Automated Mailer noreply-bt.e at etree.org
Tue Apr 4 04:40:53 UTC 2017


Band:           Other
Torrent Name:   Wolf! Rockwood Music Hall New York City, New York 4/3/2017 (Schoeps CCM4V'S FOB)
Uploaded by:    zmanatl
DB Link:        
Details:        http://bt.etree.org/details.php?id=592155

Contact the seeder at http://db.etree.org/zmanatl

If the link to this show does not work, it was probably removed for
being non-trade-friendly.

Description / text file:
-------------------------
Wolf!
Rockwood Music Hall
New York City, New York
4/3/2017

Source: Schoeps CCM4V's>Lunatec V2>Benchmark AD2K>
Sound Devices 722 (24/44)
FOB/DFC/KFC/ZFC/AARP Clamped To The Balcony Rail
DSP: Sound Devices 722>Sound Forge 10.0>CD Wave>flac(16)
ID3 Tagged In Foobar 2000
Recorded By: Z-Man
Seeded By: Z-Man

Disc I 

01 Soundcheck Tuning/Greeting
02 ?
03 ?
04 ?
05 Band Introductions
06 ?
07 Sockful Of Quarters
08 ? >
09 ?
10 Band Introductions
11 ?


Scott Metzger - Guitar 
Jon Shaw - Bass 
Taylor Florence - Drums

wolf2017-04-03d01t01.flac:690eb98210c5c7c2c4fe8bd971c4b118
wolf2017-04-03d01t02.flac:d01b1382f842b803dcda05e26471222b
wolf2017-04-03d01t03.flac:ffeefc5cb564f97f3c76a591597a82ce
wolf2017-04-03d01t04.flac:7b753d2cbd1a0b7214b0869fe562f7ef
wolf2017-04-03d01t05.flac:1a280b8678fee4dc02d42e5ad43c3b33
wolf2017-04-03d01t06.flac:fa2b17c4bf861664ee7cb7c6a0ddd652
wolf2017-04-03d01t07.flac:86f4f42aebfa9a8f5649ce951434538f
wolf2017-04-03d01t08.flac:1f89c348fe8f00f42a7a1ab13d7c180d
wolf2017-04-03d01t09.flac:c0bd58b82ead35271362f11ed901f0a4
wolf2017-04-03d01t10.flac:6ea89de91f3c00eb2bd4ab16523f7679
wolf2017-04-03d01t11.flac:4f3af4982b53f1e4a035b00f39ca3f1b

 length     expanded size    cdr  WAVE problems  fmt   ratio  filename
     2:32.40       26906924 B   ---   --   ---xx   flac  0.3480  wolf2017-04-03d01t01.flac
     4:20.29       45932252 B   ---   --   ---xx   flac  0.4897  wolf2017-04-03d01t02.flac
     5:51.20       61963484 B   ---   --   ---xx   flac  0.3684  wolf2017-04-03d01t03.flac
     6:47.33       71872460 B   ---   --   ---xx   flac  0.4986  wolf2017-04-03d01t04.flac
     1:24.10       14841164 B   ---   --   ---xx   flac  0.2952  wolf2017-04-03d01t05.flac
     6:44.00       71265644 B   ---   --   ---xx   flac  0.3633  wolf2017-04-03d01t06.flac
     7:29.49       79318892 B   ---   --   ---xx   flac  0.5020  wolf2017-04-03d01t07.flac
     5:12.53       55161500 B   ---   --   ---xx   flac  0.2100  wolf2017-04-03d01t08.flac
     4:03.27       42928748 B   ---   --   ---xx   flac  0.5484  wolf2017-04-03d01t09.flac
     1:12.50       12818444 B   ---   --   ---xx   flac  0.3358  wolf2017-04-03d01t10.flac
     7:02.22       74492588 B   ---   --   ---xx   flac  0.4940  wolf2017-04-03d01t11.flac
    52:40.33      557502100 B                            0.4248  (11 files)













More information about the bittorrent mailing list