[bittorrent] jg1983-05-07s2.jgb.aud.138076.flac1644

Automated Mailer noreply-bt.e at etree.org
Sun Apr 2 13:50:04 UTC 2017


Band:           Garcia
Torrent Name:   jg1983-05-07s2.jgb.aud.138076.flac1644
Uploaded by:    nfagdtrfb
DB Link:        
Details:        http://bt.etree.org/details.php?id=592128

Contact the seeder at http://db.etree.org/nfagdtrfb

If the link to this show does not work, it was probably removed for
being non-trade-friendly.

Description / text file:
-------------------------
JERRY GARCIA BAND
The Stone
San Francisco CA
05-07-1983
Second Set

s2t01 Sugaree
s2t02 Tangled Up in Blue
s2t03 Let it Rock
s2t04 The Night They Drove Old Dixie Down
s2t05 Midnight Moonlight

Unknown AUD (mono) kindly provided by wk & http://jgmf.blogspot.com/ 

Transfer: Maxell XLII > Nakamichi CR-5A > Edirol FA-66 > Wavelab 2448 > 
R8Brain > CD-Wave > TLH > FLAC 1644 tagged. Transfer by Andrew F. 04/2017

Note: Close-to-stage recording; ID-122981 patch first 26 seconds Sugaree. 

    length     expanded size    cdr  WAVE problems  fmt   ratio  filename
    15:43.26      166406396 B   ---   --   ---xx   flac  0.3404  jgb1983-05-07s2t01.flac
    12:30.21      132349436 B   ---   --   ---xx   flac  0.3575  jgb1983-05-07s2t02.flac
     8:59.10       95103164 B   ---   --   ---xx   flac  0.3571  jgb1983-05-07s2t03.flac
     9:03.22       95836988 B   ---   --   ---xx   flac  0.3505  jgb1983-05-07s2t04.flac
     9:07.67       96648428 B   ---   --   ---xx   flac  0.3595  jgb1983-05-07s2t05.flac
    55:23.71      586344412 B                            0.3518  (5 files)

No errors occured.




More information about the bittorrent mailing list