[bittorrent] Eric Lindell Hill Country BBQ New York City, New York 8/3/2016 (Schoeps CCM4V'S) Fixed

Automated Mailer noreply-bt.e at etree.org
Mon Aug 29 04:44:46 UTC 2016


Band:           Other
Torrent Name:   Eric Lindell Hill Country BBQ New York City, New York  8/3/2016 (Schoeps CCM4V'S) Fixed
Uploaded by:    zmanatl
DB Link:        
Details:        http://bt.etree.org/details.php?id=588464

Contact the seeder at http://db.etree.org/zmanatl

If the link to this show does not work, it was probably removed for
being non-trade-friendly.

Description / text file:
-------------------------
Eric Lindell
Hill Country BBQ
New York City, New York 
8/3/2016 

Source: Schoeps CCM4V's>Lunatec V2>Benchmark AD2K>
Sound Devices 722 (24/44)
FOB/DFC/KFC/ZFC/AARP 14' From Stage, 7' High
DSP: Sound Devices 722>Sound Forge 10.0>CD Wave>flac(16)
ID3 Tagged In Foobar 2000
Recorded By: Z-Man
Seeded By: Z-Man

Disc I 

01 Love's Gonna Live Here Again >
02 Bayou Country >
03 Sunday Morning
04 Lucky Man
05 Me and My Woman
06 If Love Can't Find A Way
07 I Can Get Off On You
08 Give It Time > 
09 Can't You See >
10 Give It Time >
11 Lay Back Down >
12 Cold November > 
13 Take Me Back >
14 Drum Solo >
15 Drums And Bass >
16 Take Me Back >
17 All Alone

Disc II 

01 Sentimental Lover
02 Aretha Sing One For Me
03 Here Come The Blues Again
04 Cryin' Time
05 See Me Through
06 You Can Have The Crown
07 Cinnamon Girl 
08 A Drunk Can't Be A Man
09 She Thinks I Still Care 

Disc III 

01 ? >
02 Country Livin' 
03 Band Introductions
04 Going To California
05 The Sun And The Sea
06 I'll Be Coming Home Real Soon To You 
07 Crowd/Tuning
08 Angel 
09 Milk N' Honey 
10 Band Introductions 
11 Manic Depression
12 Louisiana Saturday Night 

Eric Lindell - Guitar And Vocals
Steve - Bass
Chris Fitzgerald - Tenor Saxophone
Willy Maxwell - Drums
Ryan ? - Keyboards

eric2016-08-03d01t01.flac:264a57860304f0f24022ca7eb7b90994
eric2016-08-03d01t02.flac:b01b7e40c6dddc47238c1cbcffed271d
eric2016-08-03d01t03.flac:c2d58d7fef6e5ae28081669296cbd4c6
eric2016-08-03d01t04.flac:467982db3a18f5d033437a3ecc32709e
eric2016-08-03d01t05.flac:9cec54b81b073b84dd9d555009275e27
eric2016-08-03d01t06.flac:eda8074884647825b41d4ec6a33b2e1f
eric2016-08-03d01t07.flac:6a52848a93932fe538aef0aa5343b0ae
eric2016-08-03d01t08.flac:58f1f9665a8bc54ffb3a2205df0bdf12
eric2016-08-03d01t09.flac:b026953293c183df8b0b0261b68a8b20
eric2016-08-03d01t10.flac:c1591b4ac622b87b28a62a5ba5d3867f
eric2016-08-03d01t11.flac:ef5bd821b9864b0e3c7260bce90954c5
eric2016-08-03d01t12.flac:91ddeca4d7b997796df4185e28ea951c
eric2016-08-03d01t13.flac:f9c5dc0b6d4cbf78c2675b4940951d1a
eric2016-08-03d01t14.flac:0fee4ea2d6c25b038d272e236775190f
eric2016-08-03d01t15.flac:ae071cf8e32acbd047b7a8010d1ffc91
eric2016-08-03d01t16.flac:a55cb04c72fcd3a25ee0b365704c3251
eric2016-08-03d01t17.flac:29d3aa0e7226ccc5f3a468f9cccba556
eric2016-08-03d02t01.flac:e6fdf9f359bc1d334b5388fd1083c09b
eric2016-08-03d02t02.flac:a867f4e7c072a95de9883b6473f2cd32
eric2016-08-03d02t03.flac:76f74e74705a0dd6462039b387599fee
eric2016-08-03d02t04.flac:6f3e3d0f618dff633555402a0474c83e
eric2016-08-03d02t05.flac:a3a8757fabc22817c17b0f5f0f1d64ee
eric2016-08-03d02t06.flac:18d4f32d8c410aea9b3ffab7849faf8f
eric2016-08-03d02t07.flac:8b2ed0fe75d6513cfd3feab87eaac73c
eric2016-08-03d02t08.flac:494b5caeef977861edcee49069696e0a
eric2016-08-03d02t09.flac:0a76b85ab83919309f5e9b96671ba6d1
eric2016-08-03d03t01.flac:78e30ba88face1c33c382e0141fd0a75
eric2016-08-03d03t02.flac:8c7e8dc37d263b03eb671f002dfc4c84
eric2016-08-03d03t03.flac:2f33f3bc3929a7b45577811b12ad8556
eric2016-08-03d03t04.flac:ff8519803dfdc91ee11247d370ce3c82
eric2016-08-03d03t05.flac:e55c54d43c2f851bc78f4d7dd4e3fb57
eric2016-08-03d03t06.flac:476f229c30f0b5f3c6043c1bc31304f0
eric2016-08-03d03t07.flac:30cb3ab7b63bea90896ddad31fa6dbff
eric2016-08-03d03t08.flac:b4887193f32974f67bc328c2f71779f3
eric2016-08-03d03t09.flac:1299ba6283ccd400ab1c1f5ac4de049d
eric2016-08-03d03t10.flac:afd2b35f3f4ecc63126ea8e32419107c
eric2016-08-03d03t11.flac:fdbe490048ba13f52ffedca2f6e6787a
eric2016-08-03d03t12.flac:0be9db1d5864216eb122b24f200fb0f1

 length     expanded size    cdr  WAVE problems  fmt   ratio  filename
     5:14.23       55443740 B   ---   --   ---xx   flac  0.5323  eric2016-08-03d01t01.flac
     6:12.47       65731388 B   ---   --   ---xx   flac  0.5581  eric2016-08-03d01t02.flac
     3:59.57       42293708 B   ---   --   ---xx   flac  0.5497  eric2016-08-03d01t03.flac
     5:34.55       59047004 B   ---   --   ---xx   flac  0.5131  eric2016-08-03d01t04.flac
     4:00.28       42401900 B   ---   --   ---xx   flac  0.5508  eric2016-08-03d01t05.flac
     3:40.00       38808044 B   ---   --   ---xx   flac  0.5468  eric2016-08-03d01t06.flac
     5:09.19       54552332 B   ---   --   ---xx   flac  0.5527  eric2016-08-03d01t07.flac
     4:31.48       47917340 B   ---   --   ---xx   flac  0.5537  eric2016-08-03d01t08.flac
     1:12.54       12827852 B   ---   --   ---xx   flac  0.5521  eric2016-08-03d01t09.flac
     1:09.13       12202220 B   ---   --   ---xx   flac  0.4824  eric2016-08-03d01t10.flac
     5:17.38       56008220 B   ---   --   ---xx   flac  0.5511  eric2016-08-03d01t11.flac
     3:18.19       34971932 B   ---   --   ---xx   flac  0.4591  eric2016-08-03d01t12.flac
     3:58.34       42063212 B   ---   --   ---xx   flac  0.5986  eric2016-08-03d01t13.flac
     1:28.46       15631436 B   ---   --   ---xx   flac  0.5853  eric2016-08-03d01t14.flac
     1:04.42       11388428 B   ---   --   ---xx   flac  0.5856  eric2016-08-03d01t15.flac
     1:17.61       13726316 B   ---   --   ---xx   flac  0.5940  eric2016-08-03d01t16.flac
     5:11.27       54923948 B   ---   --   ---xx   flac  0.5214  eric2016-08-03d01t17.flac
     4:51.07       51348908 B   ---   --   ---xx   flac  0.5511  eric2016-08-03d02t01.flac
     4:45.05       50285804 B   ---   --   ---xx   flac  0.5520  eric2016-08-03d02t02.flac
     6:22.63       67533020 B   ---   --   ---xx   flac  0.5101  eric2016-08-03d02t03.flac
     5:17.37       56005868 B   ---   --   ---xx   flac  0.5989  eric2016-08-03d02t04.flac
     5:25.43       57431180 B   ---   --   ---xx   flac  0.4916  eric2016-08-03d02t05.flac
     5:41.28       60218300 B   ---   --   ---xx   flac  0.6016  eric2016-08-03d02t06.flac
     6:16.00       66326444 B   ---   --   ---xx   flac  0.5115  eric2016-08-03d02t07.flac
     3:04.02       32462348 B   ---   --   ---xx   flac  0.4736  eric2016-08-03d02t08.flac
     7:05.00       74970044 B   ---   --   ---xx   flac  0.5890  eric2016-08-03d02t09.flac
     3:51.35       40830764 B   ---   --   ---xx   flac  0.5383  eric2016-08-03d03t01.flac
     4:57.23       52444940 B   ---   --   ---xx   flac  0.5709  eric2016-08-03d03t02.flac
     1:23.05       14653004 B   ---   --   ---xx   flac  0.4646  eric2016-08-03d03t03.flac
     3:51.28       40814300 B   ---   --   ---xx   flac  0.5177  eric2016-08-03d03t04.flac
     5:40.53       60100700 B   ---   --   ---xx   flac  0.4932  eric2016-08-03d03t05.flac
     3:56.21       41679836 B   ---   --   ---xx   flac  0.5252  eric2016-08-03d03t06.flac
     2:32.65       26965724 B   ---   --   ---xx   flac  0.3445  eric2016-08-03d03t07.flac
     6:04.05       64221404 B   ---   --   ---xx   flac  0.4875  eric2016-08-03d03t08.flac
     4:35.04       48519452 B   ---   --   ---xx   flac  0.5591  eric2016-08-03d03t09.flac
     0:32.66        5800076 B   ---   --   ---xx   flac  0.4519  eric2016-08-03d03t10.flac
     2:41.37       28487468 B   ---   --   ---xx   flac  0.4783  eric2016-08-03d03t11.flac
     4:22.71       46383836 B   ---   --   ---xx   flac  0.5377  eric2016-08-03d03t12.flac
   155:39.09     1647422440 B                            0.5347  (38 files)





















More information about the bittorrent mailing list