[bittorrent] Feign Pathos Pete's Candy Store Brooklyn, New York 8/28/2016 (Schoeps CCM4V'S FOB)

Automated Mailer noreply-bt.e at etree.org
Mon Aug 29 03:44:31 UTC 2016


Band:           Other
Torrent Name:   Feign Pathos Pete's Candy Store Brooklyn, New York 8/28/2016 (Schoeps CCM4V'S FOB)
Uploaded by:    zmanatl
DB Link:        
Details:        http://bt.etree.org/details.php?id=588463

Contact the seeder at http://db.etree.org/zmanatl

If the link to this show does not work, it was probably removed for
being non-trade-friendly.

Description / text file:
-------------------------
Feign Pathos (Ryan Thompson)
Pete's Candy Store
Brooklyn, New York
8/28/2016

Source: Schoeps CCM4V's>Lunatec V2>Benchmark AD2K>
Sound Devices 722 (24/44)
FOB/DLFC/KFC/ZFC/AARP 5' From Stage, 5' High
DSP: Sound Devices 722>Sound Forge 10.0>CD Wave>flac(16)
ID3 Tagged In Foobar 2000
Recorded By: Z-Man
Seeded By: Z-Man

Disc I 

01 ?
02 I Will Be Here With You
03 She's The Queen Of My Heart >
04 It's What You Want
05 ?
06 ?
07 ?
08 Heard It Through The Grapevine
09 Yes I Love It
10 I'm Goin' Crazy
11 What's Love Got To Do With It

feign2016-08-28d01t01.flac:5bb70176a2da2e065611da2e83bc9b21
feign2016-08-28d01t02.flac:d4453b9c8b624493d08a765fe5d13384
feign2016-08-28d01t03.flac:078936772d6e153057ecf6dc5a9bf33b
feign2016-08-28d01t04.flac:93ef4f881827bf4a597c70452d5fe0fb
feign2016-08-28d01t05.flac:fa0796d3f3185d206efeeaf6d78181c7
feign2016-08-28d01t06.flac:3fe86bb235f08c161dcaa8db646238e2
feign2016-08-28d01t07.flac:80edaea463c0f503d601e75e00d261ec
feign2016-08-28d01t08.flac:b5c341c20ac35c68b9e260a06d27733a
feign2016-08-28d01t09.flac:8fa25715c00cc833c18d014d48ea60bf
feign2016-08-28d01t10.flac:d7625289e7a7a651545a00ae78aa49ab
feign2016-08-28d01t11.flac:d6268799fac426ec778c249583ce2ac9

  length     expanded size    cdr  WAVE problems  fmt   ratio  filename
     3:49.70       40560284 B   ---   --   ---xx   flac  0.3940  feign2016-08-28d01t01.flac
     4:41.49       49683692 B   ---   --   ---xx   flac  0.4287  feign2016-08-28d01t02.flac
     3:20.56       35411756 B   ---   --   ---xx   flac  0.4262  feign2016-08-28d01t03.flac
     5:13.67       55370828 B   ---   --   ---xx   flac  0.4150  feign2016-08-28d01t04.flac
     4:16.57       45292508 B   ---   --   ---xx   flac  0.4207  feign2016-08-28d01t05.flac
     4:41.27       49631948 B   ---   --   ---xx   flac  0.4296  feign2016-08-28d01t06.flac
     2:55.56       31001756 B   ---   --   ---xx   flac  0.4558  feign2016-08-28d01t07.flac
     3:00.48       31864940 B   ---   --   ---xx   flac  0.4252  feign2016-08-28d01t08.flac
     3:20.62       35425868 B   ---   --   ---xx   flac  0.4050  feign2016-08-28d01t09.flac
     4:46.46       50558636 B   ---   --   ---xx   flac  0.4194  feign2016-08-28d01t10.flac
     4:51.38       51421820 B   ---   --   ---xx   flac  0.4015  feign2016-08-28d01t11.flac
    44:59.51      476224036 B                            0.4191  (11 files)













More information about the bittorrent mailing list