[bittorrent] jgb1981-02-05.aud.schley.136789.flac1644

Automated Mailer noreply-bt.e at etree.org
Sun Aug 28 20:01:31 UTC 2016


Band:           Garcia
Torrent Name:   jgb1981-02-05.aud.schley.136789.flac1644
Uploaded by:    nfagdtrfb
DB Link:        
Details:        http://bt.etree.org/details.php?id=588453

Contact the seeder at http://db.etree.org/nfagdtrfb

If the link to this show does not work, it was probably removed for
being non-trade-friendly.

Description / text file:
-------------------------
JERRY GARCIA BAND
Stabler Arena
Lehigh University
Bethlehem PA
02-05-1981

s1t01 How Sweet It Is
s1t02 Catfish John
s1t03 That's What Love Will Make You Do
s1t04 Simple Twist of Fate
s1t05 Let it Rock
s1t06 Tangled Up in Blue

s2t01 Sugaree
s2t02 The Harder They Come
s2t03 When I Paint My Masterpiece
s2t04 The Night They Drove Old Dixie Down
s2t05 Dear Prudence
s2t06 Midnight Moonlight

Source: AUD (likely 1st-Gen) from the Brian Schley tape collection.

Transfer: Hitachi UDEX (Chrome) > Nakamichi CR-5A > Edirol FA-66 > 
Wavelab 2448 > R8Brain SRC > Wavelab (adding 16-bit patches) > 
CD-Wave > TLH > FLAC 1644 tagged. Transferred by Andrew F. 08/2016

Note: Nice recording mix, does not match the current sources. Tape 
flips and small gaps covered by patches from the Eng & Vita sources. 
Thanks Jon Pasternak & Charlie McGuth for organizing this project!

    length     expanded size    cdr  WAVE problems  fmt   ratio  filename
     9:19.58       98744060 B   ---   --   ---xx   flac  0.6039  jgb1981-02-05s1t01.flac
    11:26.02      121015148 B   ---   --   ---xx   flac  0.5896  jgb1981-02-05s1t02.flac
     8:44.13       92464220 B   ---   --   ---xx   flac  0.5997  jgb1981-02-05s1t03.flac
    16:10.31      171180956 B   ---   --   ---xx   flac  0.5530  jgb1981-02-05s1t04.flac
     7:56.41       84062876 B   ---   --   ---xx   flac  0.5895  jgb1981-02-05s1t05.flac
     9:18.02       98435948 B   ---   --   ---xx   flac  0.5969  jgb1981-02-05s1t06.flac
    15:02.61      159256316 B   ---   --   ---xx   flac  0.5766  jgb1981-02-05s2t01.flac
    13:24.05      141837404 B   ---   --   ---xx   flac  0.5804  jgb1981-02-05s2t02.flac
     9:19.31       98680556 B   ---   --   ---xx   flac  0.5702  jgb1981-02-05s2t03.flac
     8:39.03       91558700 B   ---   --   ---xx   flac  0.5436  jgb1981-02-05s2t04.flac
    13:15.49      140353292 B   ---   --   ---xx   flac  0.5640  jgb1981-02-05s2t05.flac
     9:20.72       98953388 B   ---   --   ---xx   flac  0.5747  jgb1981-02-05s2t06.flac
   131:56.68     1396542864 B                            0.5769  (12 files)

No errors occured.




More information about the bittorrent mailing list