[bittorrent] Jarrod Dickenson City Winery New York City, New York 8/11/2016 (Schoeps CCM4V'S )

Automated Mailer noreply-bt.e at etree.org
Sun Aug 28 05:11:39 UTC 2016


Band:           Other
Torrent Name:   Jarrod Dickenson City Winery New York City, New York 8/11/2016 (Schoeps CCM4V'S )
Uploaded by:    zmanatl
DB Link:        
Details:        http://bt.etree.org/details.php?id=588445

Contact the seeder at http://db.etree.org/zmanatl

If the link to this show does not work, it was probably removed for
being non-trade-friendly.

Description / text file:
-------------------------
Jarrod And Blair Dickenson
City Winery
New York City, New York
8/11/2016 

Source: Schoeps CCM4V's>Lunatec V2>Benchmark AD2K>
Sound Devices 722 (24/44)
BOB/DFC/KFC/ZFC/AARP 30' From Stage, 7 1/2' High
DSP: Sound Devices 722>Sound Forge 10.0>CD Wave>flac(16)
ID3 Tagged In Foobar 2000
Recorded By: Z-Man
Seeded By: Z-Man

Disc I 

01 Announcements/Introduction 
02 ?
03 Rosalie
04 Banter
05 Your Heart Belongs To Me
06 A Cowboy And A Big Long
07 We Danced
08 I Wish I Was In Austin
09 Little Black Dress

jarrod2016-08-11d01t01.flac:8ddf677bd7a449011c7035e6b408a2d8
jarrod2016-08-11d01t02.flac:4ca043310ab082dbb24b20a42ee83a93
jarrod2016-08-11d01t03.flac:c6783ca3a0ae602af5a10d16cc79bae8
jarrod2016-08-11d01t04.flac:1a86af717a4fca5741af412ad8e85619
jarrod2016-08-11d01t05.flac:1e9650a5157dd0511783f9c210955cbb
jarrod2016-08-11d01t06.flac:4692a44cc4266c705a3c09da9346c084
jarrod2016-08-11d01t07.flac:4d8acde418e9f2a1c3f1345962cfad44
jarrod2016-08-11d01t08.flac:741cc284443d90d7986ef9881847d107
jarrod2016-08-11d01t09.flac:75562ab93a64b31f469f1ef2c7a8aa5a

length     expanded size    cdr  WAVE problems  fmt   ratio  filename
     1:57.44       20742332 B   ---   --   ---xx   flac  0.4142  jarrod2016-08-11d01t01.flac
     4:09.45       44029484 B   ---   --   ---xx   flac  0.4749  jarrod2016-08-11d01t02.flac
     3:19.50       35221244 B   ---   --   ---xx   flac  0.3855  jarrod2016-08-11d01t03.flac
     1:57.22       20690588 B   ---   --   ---xx   flac  0.3334  jarrod2016-08-11d01t04.flac
     3:25.49       36277292 B   ---   --   ---xx   flac  0.3811  jarrod2016-08-11d01t05.flac
     4:21.20       46087484 B   ---   --   ---xx   flac  0.3756  jarrod2016-08-11d01t06.flac
     5:11.60       55001564 B   ---   --   ---xx   flac  0.3644  jarrod2016-08-11d01t07.flac
     4:53.19       51729932 B   ---   --   ---xx   flac  0.3736  jarrod2016-08-11d01t08.flac
     4:54.22       51913388 B   ---   --   ---xx   flac  0.4521  jarrod2016-08-11d01t09.flac
    34:10.31      361693308 B                            0.3980  (9 files)






 







More information about the bittorrent mailing list