[bittorrent] Asphalt Grey Mexicali Live Teaneck, New Jersey 8/24/2016 (Schoeps CCM4V'S FOB)

Automated Mailer noreply-bt.e at etree.org
Sat Aug 27 13:20:16 UTC 2016


Band:           Other
Torrent Name:   Asphalt Grey Mexicali Live Teaneck, New Jersey 8/24/2016 (Schoeps CCM4V'S FOB)
Uploaded by:    zmanatl
DB Link:        
Details:        http://bt.etree.org/details.php?id=588428

Contact the seeder at http://db.etree.org/zmanatl

If the link to this show does not work, it was probably removed for
being non-trade-friendly.

Description / text file:
-------------------------
Asphalt Grey
Mexicali Live
Teaneck, New Jersey
8/24/2016 

Source: Schoeps CCM4V's>Lunatec V2>Benchmark AD2K>
Sound Devices 722 (24/44)
FOB/DFC/KFC/ZFC/AARP 16' From Stage, 6 1/2' High
DSP: Sound Devices 722>Sound Forge 10.0>CD Wave>flac(16)
ID3 Tagged In Foobar 2000
Recorded By: Z-Man
Seeded By: Z-Man

Disc I 

01 ?
02 ?
03 Pay The Price
04 Hey Ho, Let's Go!
05 ?
06 ?
07 Hey Joe >
08 Whole Lotta Love >
09 Hey Joe
10 ?
11 ?
12 Roll Over Beethoven 
13 Band Introductions/Outro

asphalt2016-08-24d01t01.flac:339eccc49664d2b56fbfabf7a0e17447
asphalt2016-08-24d01t02.flac:aa7d5d3fdd4a835b29f3e173f3a33510
asphalt2016-08-24d01t03.flac:33d70320fa67fa07ae914164b0eef673
asphalt2016-08-24d01t04.flac:45a3150990030433b6f92a752cdefc67
asphalt2016-08-24d01t05.flac:f2db964de0c33616ff260a146f8e36a5
asphalt2016-08-24d01t06.flac:7ea27f8332c8c438dc3823fe662d3a53
asphalt2016-08-24d01t07.flac:18418bc2588a2413b958f02835eecddc
asphalt2016-08-24d01t08.flac:e3d2462de68ac2e0208a5ef112b54a95
asphalt2016-08-24d01t09.flac:1dfa28309af4a1391069868d1485d3cc
asphalt2016-08-24d01t10.flac:c07d8d7db6bc5a1a2b3d4cc59230087c
asphalt2016-08-24d01t11.flac:678c555aae6bd1b27d58f47e9eba63c7
asphalt2016-08-24d01t12.flac:8f063c87fa23ddb4f9d25e90cb99df7e
asphalt2016-08-24d01t13.flac:20052c11ea102bc40295e5d6bc20f217

 length     expanded size    cdr  WAVE problems  fmt   ratio  filename
     4:41.49       49683692 B   ---   --   ---xx   flac  0.5513  asphalt2016-08-24d01t01.flac
     5:25.36       57414716 B   ---   --   ---xx   flac  0.5699  asphalt2016-08-24d01t02.flac
     4:16.25       45217244 B   ---   --   ---xx   flac  0.6103  asphalt2016-08-24d01t03.flac
     2:20.74       24870092 B   ---   --   ---xx   flac  0.6161  asphalt2016-08-24d01t04.flac
     4:46.05       50462204 B   ---   --   ---xx   flac  0.5667  asphalt2016-08-24d01t05.flac
     6:34.04       69511052 B   ---   --   ---xx   flac  0.5457  asphalt2016-08-24d01t06.flac
     4:05.67       43375628 B   ---   --   ---xx   flac  0.6232  asphalt2016-08-24d01t07.flac
     1:04.34       11369612 B   ---   --   ---xx   flac  0.6224  asphalt2016-08-24d01t08.flac
     1:09.21       12221036 B   ---   --   ---xx   flac  0.4825  asphalt2016-08-24d01t09.flac
     3:18.23       34981340 B   ---   --   ---xx   flac  0.6203  asphalt2016-08-24d01t10.flac
     6:52.20       72723884 B   ---   --   ---xx   flac  0.5567  asphalt2016-08-24d01t11.flac
     4:14.11       44831516 B   ---   --   ---xx   flac  0.6105  asphalt2016-08-24d01t12.flac
     1:21.69       14450732 B   ---   --   ---xx   flac  0.4129  asphalt2016-08-24d01t13.flac
    50:10.63      531112748 B                            0.5744  (13 files)







More information about the bittorrent mailing list