[bittorrent] Academy Blues Pro ect Joe's Pub New York City, New York 8/25/2016 (Schoeps CCM4V'S FOB)

Automated Mailer noreply-bt.e at etree.org
Fri Aug 26 06:34:05 UTC 2016


Band:           Other
Torrent Name:   Academy Blues Pro ect Joe's Pub New York City, New York 8/25/2016 (Schoeps CCM4V'S FOB)
Uploaded by:    zmanatl
DB Link:        
Details:        http://bt.etree.org/details.php?id=588415

Contact the seeder at http://db.etree.org/zmanatl

If the link to this show does not work, it was probably removed for
being non-trade-friendly.

Description / text file:
-------------------------
Academy Blues Project 
Joe's Pub
New York City, New York
8/25/2016 

Source: Schoeps CCM4V's>Lunatec V2>Benchmark AD2K>
Sound Devices 722 (24/44)
FOB/DFC/KFC/ZFC/AARP 16' From Stage, 6 1/2' High
DSP: Sound Devices 722>Sound Forge 10.0>CD Wave>flac(16)
ID3 Tagged In Foobar 2000
Recorded By: Z-Man
Seeded By: Z-Man

Disc I 

01 Upwilling
02 In Other Words >
03 ? >
04 ?

academy2016-08-25d01t01.flac:a9702dce3ec1bc8786ea9b4aecc1fbe6
academy2016-08-25d01t02.flac:08bc97e3d86c1c914ec2016b57bd496f
academy2016-08-25d01t03.flac:6e16e986c6e4a84ee7e5690cefbb1d2a
academy2016-08-25d01t04.flac:1a29d60f127fd4cdb8ed554107829ec3

 length     expanded size    cdr  WAVE problems  fmt   ratio  filename
     6:39.44       70487132 B   ---   --   ---xx   flac  0.4655  academy2016-08-25d01t01.flac
     5:54.11       62471516 B   ---   --   ---xx   flac  0.4283  academy2016-08-25d01t02.flac
     4:55.03       52045100 B   ---   --   ---xx   flac  0.5094  academy2016-08-25d01t03.flac
     3:44.08       39532460 B   ---   --   ---xx   flac  0.4701  academy2016-08-25d01t04.flac
    21:12.66      224536208 B                            0.4662  (4 files)



















More information about the bittorrent mailing list