[bittorrent] Jon Stickley Trio Joe's Pub New York City, New York 8/25/2016 (Schoeps CCM4V'S FOB)

Automated Mailer noreply-bt.e at etree.org
Fri Aug 26 03:57:36 UTC 2016


Band:           Other
Torrent Name:   Jon Stickley Trio  Joe's Pub New York City, New York 8/25/2016 (Schoeps CCM4V'S FOB)
Uploaded by:    zmanatl
DB Link:        
Details:        http://bt.etree.org/details.php?id=588414

Contact the seeder at http://db.etree.org/zmanatl

If the link to this show does not work, it was probably removed for
being non-trade-friendly.

Description / text file:
-------------------------
Jon Stickley Trio 
Joe's Pub
New York City, New York
8/25/2016 

Source: Schoeps CCM4V's>Lunatec V2>Benchmark AD2K>
Sound Devices 722 (24/44)
FOB/DFC/KFC/ZFC/AARP 16' From Stage, 6 1/2' High
DSP: Sound Devices 722>Sound Forge 10.0>CD Wave>flac(16)
ID3 Tagged In Foobar 2000
Recorded By: Z-Man
Seeded By: Z-Man

Disc I 

01 B Burn
02 The High Road
03 Plain Sight
04 Manzanita
05 Rice Dream >
06 Never Stop 
07 Darth Radar
08 GOA
09 JRU
10 Echo Location
11 Point To Point >
12 Slow
13 Flight Of The Durband

jon2016-08-25d01t01.flac:62091515aaa7bafdd77af23232950e55
jon2016-08-25d01t02.flac:d5dfa843afe49bba09ce2c3b3d456743
jon2016-08-25d01t03.flac:44eab6ed1e76e2157a51d066c6724778
jon2016-08-25d01t04.flac:ea6afc046ce13663c42fe8494f579228
jon2016-08-25d01t05.flac:f221ea4cccc99ec308f4bc4a77e790f2
jon2016-08-25d01t06.flac:e4b37ed566f8d3de984c0f60ec5d2c7a
jon2016-08-25d01t07.flac:b79e51bc224401472ded92a27356608c
jon2016-08-25d01t08.flac:1898aff0bfa99f6e48324a51177942ce
jon2016-08-25d01t09.flac:b04cb01b4e09feefb7a95e153b78f04f
jon2016-08-25d01t10.flac:7fc0349368b282f6951e7712b891f58b
jon2016-08-25d01t11.flac:be5441a2fb44344897d0f13adaed6f03
jon2016-08-25d01t12.flac:04f69c84331c8acf5a6e21fff10e57c6
jon2016-08-25d01t13.flac:9a19df7ca3541c6c672630816ae2f80a

length     expanded size    cdr  WAVE problems  fmt   ratio  filename
     4:15.38       45071420 B   ---   --   ---xx   flac  0.5501  jon2016-08-25d01t01.flac
     5:20.64       56598572 B   ---   --   ---xx   flac  0.5158  jon2016-08-25d01t02.flac
     4:44.29       50165852 B   ---   --   ---xx   flac  0.5182  jon2016-08-25d01t03.flac
     4:28.55       47404604 B   ---   --   ---xx   flac  0.4902  jon2016-08-25d01t04.flac
     5:56.56       62930156 B   ---   --   ---xx   flac  0.4923  jon2016-08-25d01t05.flac
     3:24.41       36082076 B   ---   --   ---xx   flac  0.5425  jon2016-08-25d01t06.flac
     5:57.35       63057164 B   ---   --   ---xx   flac  0.5338  jon2016-08-25d01t07.flac
     6:19.33       66933260 B   ---   --   ---xx   flac  0.4402  jon2016-08-25d01t08.flac
     6:35.70       69842684 B   ---   --   ---xx   flac  0.4749  jon2016-08-25d01t09.flac
     4:48.51       50923196 B   ---   --   ---xx   flac  0.5066  jon2016-08-25d01t10.flac
     5:35.52       59216348 B   ---   --   ---xx   flac  0.5300  jon2016-08-25d01t11.flac
     5:22.17       56840828 B   ---   --   ---xx   flac  0.4825  jon2016-08-25d01t12.flac
     5:09.57       54641708 B   ---   --   ---xx   flac  0.5414  jon2016-08-25d01t13.flac
    67:59.73      719707868 B                            0.5061  (13 files)















 



More information about the bittorrent mailing list