[bittorrent] Ween 2016-08-23 House of Blues Boston, MA Schoeps mk4v>nbob actives>Naiant PFAs>Sonosax SX-R4 **16bit**

Automated Mailer noreply-bt.e at etree.org
Thu Aug 25 00:56:02 UTC 2016


Band:           Ween
Torrent Name:   Ween 2016-08-23 House of Blues Boston, MA Schoeps mk4v>nbob actives>Naiant PFAs>Sonosax SX-R4 **16bit**
Uploaded by:    andyjah
DB Link:        
Details:        http://bt.etree.org/details.php?id=588392

Contact the seeder at http://db.etree.org/andyjah

If the link to this show does not work, it was probably removed for
being non-trade-friendly.

Description / text file:
-------------------------
Ween 
House of Blues 
Boston MA 
2016-08-23 

mics were din dfc behind the soundboard 

Schoeps mk4v>nbob actives>Naiant PFAs>Sonosax SX-R4 (24bit/96khz) 

WAV>USB>Imac>Audacity(tracking,fades)>Sony Soundforge Convrt(resample(izotope,higher than highest settings)/dither(mbit+/ultra, high dither)to 16 bit/44.1k)>XAct(FLAC 8,ffp,fix sbe,tagging)

Recorded by Andy Murray

01. intro/banter 
02. Exactly Where I'm At 
03. Take Me Away 
04. Touch My Tooter 
05. Transdermal Celebration 
06. Now I'm Freaking Out 
07. Japanese Cowboy 
08. Piss Up A Rope 
09. With My Own Bare Hands 
10. Object 
11. Voodoo Lady 
12. The Stallion pt. 3 
13. Back To Basom 
14. Buckingham Green 
15. Bananas And Blow 
16. Tick 
17. Papa Zit 
18. I Play It Off Legit 
19. Even If You Don't 
20. Ocean Man 
21. The Argus 
22. Boys Club 
23. The Stallion pt. 1 
24. Spinal Meningitis 
25. Zoloft 
26. Stroker Ace 
27. The Goin' Gets Tough From The Getgo 
28. Roses Are Free 
29. encore break/banter 
30. Squelch The Weasel 
31. Your Party 
32. Demon Sweat 
33. The Mollusk

;flac fingerprints generated by xACT 2.38 on 2016-08-25 00:10:31 +0000

ween2016-08-23.mk4v.sxr4.1644.s1t01.flac:210e4d5cf6f7807b2413de1a511cc605
ween2016-08-23.mk4v.sxr4.1644.s1t02.flac:ed6229200344da157bd44abf670910ee
ween2016-08-23.mk4v.sxr4.1644.s1t03.flac:2518dfccba0d93b82f45a4df77d19f06
ween2016-08-23.mk4v.sxr4.1644.s1t04.flac:5a270ae5338cee7fb85cbd522d3e0abb
ween2016-08-23.mk4v.sxr4.1644.s1t05.flac:40aec32d5d2aaecb072f6537a945bca1
ween2016-08-23.mk4v.sxr4.1644.s1t06.flac:fa5d8df4edf5f6f1e2144de714653a30
ween2016-08-23.mk4v.sxr4.1644.s1t07.flac:5e9cb0b615e6c81b7d6e43b929e9e077
ween2016-08-23.mk4v.sxr4.1644.s1t08.flac:92a51816f370952e12e01003562826d0
ween2016-08-23.mk4v.sxr4.1644.s1t09.flac:ac0f7c2be84625635d1b9092342de7ec
ween2016-08-23.mk4v.sxr4.1644.s1t10.flac:642cf796ae568718d745932ba2930e5f
ween2016-08-23.mk4v.sxr4.1644.s1t11.flac:341c1da44471a8b8db8817d823c2e7cf
ween2016-08-23.mk4v.sxr4.1644.s1t12.flac:d9f286193a4cc89aea8463988fc2e646
ween2016-08-23.mk4v.sxr4.1644.s1t13.flac:124825fcc6402d832b4ee5d225379788
ween2016-08-23.mk4v.sxr4.1644.s1t14.flac:066ad9c76af69c8ba48f35137b70cb8f
ween2016-08-23.mk4v.sxr4.1644.s1t15.flac:482be3ea4b2706de9f5bb719d8e6c057
ween2016-08-23.mk4v.sxr4.1644.s1t16.flac:259feeb0441c1f786e02a531e81dcec0
ween2016-08-23.mk4v.sxr4.1644.s1t17.flac:cf21b5fabb2623dc33b4a1c16694c351
ween2016-08-23.mk4v.sxr4.1644.s1t18.flac:2ed1cbf2f9fa7f778d273851f0851213
ween2016-08-23.mk4v.sxr4.1644.s1t19.flac:9f6caedd3c32634743b2df90a77d82f1
ween2016-08-23.mk4v.sxr4.1644.s1t20.flac:5520c3a6f412f96d72ec20d7ab17c0a2
ween2016-08-23.mk4v.sxr4.1644.s1t21.flac:ceb21b59dcb6cf8b0a5f98654a423a47
ween2016-08-23.mk4v.sxr4.1644.s1t22.flac:373bdbda39f5352930ed3c9172fcc66f
ween2016-08-23.mk4v.sxr4.1644.s1t23.flac:0e62bd1f7eb8448c385be1f790c32a49
ween2016-08-23.mk4v.sxr4.1644.s1t24.flac:6d09bf40b0d4f9cd88dc3931d17641b1
ween2016-08-23.mk4v.sxr4.1644.s1t25.flac:84c1fa51418f67f655357b461267660c
ween2016-08-23.mk4v.sxr4.1644.s1t26.flac:9c60b99e061f0b50418fe1395fb54c11
ween2016-08-23.mk4v.sxr4.1644.s1t27.flac:526dec79a3828f816906c8717e14d3a2
ween2016-08-23.mk4v.sxr4.1644.s1t28.flac:25979cd311b16c4eadc77f9943556301
ween2016-08-23.mk4v.sxr4.1644.s1t29.flac:1dafd14daeb0064c7f736c2aeefebb33
ween2016-08-23.mk4v.sxr4.1644.s1t30.flac:a8b3924d3792672be73696fd2502f32d
ween2016-08-23.mk4v.sxr4.1644.s1t31.flac:9372629001b32edc173090020a3053aa
ween2016-08-23.mk4v.sxr4.1644.s1t32.flac:0eb666ce7b76f848d7696e1e6074dac5
ween2016-08-23.mk4v.sxr4.1644.s1t33.flac:78222fa063c306ed6e01e0b728530970

    length     expanded size    cdr  WAVE problems  fmt   ratio  filename
     1:22.28       14530700 B   ---   --   -----    wav  1.0000  ween2016-08-23.mk4v.sxr4.1644.s1t01.wav
     4:08.07       43763708 B   ---   --   -----    wav  1.0000  ween2016-08-23.mk4v.sxr4.1644.s1t02.wav
     6:36.42       69953228 B   ---   --   -----    wav  1.0000  ween2016-08-23.mk4v.sxr4.1644.s1t03.wav
     3:27.43       36615980 B   ---   --   -----    wav  1.0000  ween2016-08-23.mk4v.sxr4.1644.s1t04.wav
     5:25.27       57393548 B   ---   --   -----    wav  1.0000  ween2016-08-23.mk4v.sxr4.1644.s1t05.wav
     3:38.29       38523452 B   ---   --   -----    wav  1.0000  ween2016-08-23.mk4v.sxr4.1644.s1t06.wav
     3:42.35       39243164 B   ---   --   -----    wav  1.0000  ween2016-08-23.mk4v.sxr4.1644.s1t07.wav
     3:39.04       38641052 B   ---   --   -----    wav  1.0000  ween2016-08-23.mk4v.sxr4.1644.s1t08.wav
     3:34.18       37791980 B   ---   --   -----    wav  1.0000  ween2016-08-23.mk4v.sxr4.1644.s1t09.wav
     3:10.18       33558380 B   ---   --   -----    wav  1.0000  ween2016-08-23.mk4v.sxr4.1644.s1t10.wav
    11:29.41      121636076 B   ---   --   -----    wav  1.0000  ween2016-08-23.mk4v.sxr4.1644.s1t11.wav
     3:53.15       41136524 B   ---   --   -----    wav  1.0000  ween2016-08-23.mk4v.sxr4.1644.s1t12.wav
     4:30.19       47672732 B   ---   --   -----    wav  1.0000  ween2016-08-23.mk4v.sxr4.1644.s1t13.wav
     5:45.35       60940364 B   ---   --   -----    wav  1.0000  ween2016-08-23.mk4v.sxr4.1644.s1t14.wav
     4:24.71       46736636 B   ---   --   -----    wav  1.0000  ween2016-08-23.mk4v.sxr4.1644.s1t15.wav
     2:32.68       26972780 B   ---   --   -----    wav  1.0000  ween2016-08-23.mk4v.sxr4.1644.s1t16.wav
     2:14.57       23771708 B   ---   --   -----    wav  1.0000  ween2016-08-23.mk4v.sxr4.1644.s1t17.wav
     7:21.22       77844188 B   ---   --   -----    wav  1.0000  ween2016-08-23.mk4v.sxr4.1644.s1t18.wav
     6:19.44       66959132 B   ---   --   -----    wav  1.0000  ween2016-08-23.mk4v.sxr4.1644.s1t19.wav
     4:21.05       46052204 B   ---   --   -----    wav  1.0000  ween2016-08-23.mk4v.sxr4.1644.s1t20.wav
     6:53.50       72970844 B   ---   --   -----    wav  1.0000  ween2016-08-23.mk4v.sxr4.1644.s1t21.wav
     3:34.57       37883708 B   ---   --   -----    wav  1.0000  ween2016-08-23.mk4v.sxr4.1644.s1t22.wav
     4:25.21       46795436 B   ---   --   -----    wav  1.0000  ween2016-08-23.mk4v.sxr4.1644.s1t23.wav
     4:05.71       43385036 B   ---   --   -----    wav  1.0000  ween2016-08-23.mk4v.sxr4.1644.s1t24.wav
     8:59.59       95218412 B   ---   --   -----    wav  1.0000  ween2016-08-23.mk4v.sxr4.1644.s1t25.wav
     2:40.09       28245212 B   ---   --   -----    wav  1.0000  ween2016-08-23.mk4v.sxr4.1644.s1t26.wav
     3:04.24       32514092 B   ---   --   -----    wav  1.0000  ween2016-08-23.mk4v.sxr4.1644.s1t27.wav
     6:17.38       66592220 B   ---   --   -----    wav  1.0000  ween2016-08-23.mk4v.sxr4.1644.s1t28.wav
     5:02.19       53317532 B   ---   --   -----    wav  1.0000  ween2016-08-23.mk4v.sxr4.1644.s1t29.wav
     3:09.49       33454892 B   ---   --   -----    wav  1.0000  ween2016-08-23.mk4v.sxr4.1644.s1t30.wav
     4:52.13       51539420 B   ---   --   -----    wav  1.0000  ween2016-08-23.mk4v.sxr4.1644.s1t31.wav
     5:35.55       59223404 B   ---   --   -----    wav  1.0000  ween2016-08-23.mk4v.sxr4.1644.s1t32.wav
     6:03.24       64089692 B   ---   --   -----    wav  1.0000  ween2016-08-23.mk4v.sxr4.1644.s1t33.wav
   156:21.67     1654967436 B                            1.0000  (33 files)




More information about the bittorrent mailing list