[bittorrent] Ween 2016-08-23 House of Blues Boston, MA Schoeps mk41v/kc5/cmc6>Sonosax SX-R4 **16bit**

Automated Mailer noreply-bt.e at etree.org
Thu Aug 25 00:51:50 UTC 2016


Band:           Ween
Torrent Name:   Ween 2016-08-23 House of Blues Boston, MA Schoeps mk41v/kc5/cmc6>Sonosax SX-R4 **16bit**
Uploaded by:    andyjah
DB Link:        
Details:        http://bt.etree.org/details.php?id=588390

Contact the seeder at http://db.etree.org/andyjah

If the link to this show does not work, it was probably removed for
being non-trade-friendly.

Description / text file:
-------------------------
Ween 
House of Blues 
Boston MA 
2016-08-23 

mics were din dfc behind the soundboard 

Schoeps mk41v>kc5>cmc6>Sonosax SX-R4 (24bit/96khz) 

WAV>USB>Imac>Audacity(tracking,fades)>Sony Soundforge Convrt(resample(izotope,higher than highest settings)/dither(mbit+/ultra, high dither)to 16 bit/44.1k)>XAct(FLAC 8,ffp,fix sbe,tagging)

Recorded by Andy Murray

01. intro/banter 
02. Exactly Where I'm At 
03. Take Me Away 
04. Touch My Tooter 
05. Transdermal Celebration 
06. Now I'm Freaking Out 
07. Japanese Cowboy 
08. Piss Up A Rope 
09. With My Own Bare Hands 
10. Object 
11. Voodoo Lady 
12. The Stallion pt. 3 
13. Back To Basom 
14. Buckingham Green 
15. Bananas And Blow 
16. Tick 
17. Papa Zit 
18. I Play It Off Legit 
19. Even If You Don't 
20. Ocean Man 
21. The Argus 
22. Boys Club 
23. The Stallion pt. 1 
24. Spinal Meningitis 
25. Zoloft 
26. Stroker Ace 
27. The Goin' Gets Tough From The Getgo 
28. Roses Are Free 
29. encore break/banter 
30. Squelch The Weasel 
31. Your Party 
32. Demon Sweat 
33. The Mollusk

;flac fingerprints generated by xACT 2.38 on 2016-08-25 00:14:13 +0000

ween2016-08-23.mk41v.sxr4.1644.s1t01.flac:913216b1b73471a4bb39f7f2d3c0df8e
ween2016-08-23.mk41v.sxr4.1644.s1t02.flac:e2a05974e0ab824b3f18d1b76a981cfd
ween2016-08-23.mk41v.sxr4.1644.s1t03.flac:8ae6a64f911177a80e00d9e4fe6226e5
ween2016-08-23.mk41v.sxr4.1644.s1t04.flac:b0c35b012358be37da6450fd25ba569c
ween2016-08-23.mk41v.sxr4.1644.s1t05.flac:b4dbb06b7a09795b678cb11524e60104
ween2016-08-23.mk41v.sxr4.1644.s1t06.flac:c74bd7d779082ab214bcaf43f3021698
ween2016-08-23.mk41v.sxr4.1644.s1t07.flac:a3b92d7a22fe0f14a40c269da6c25834
ween2016-08-23.mk41v.sxr4.1644.s1t08.flac:7b8d5fca08d298c8169be3cc01a3b2db
ween2016-08-23.mk41v.sxr4.1644.s1t09.flac:81a3b85abc35b9ba849323c7104dbe6f
ween2016-08-23.mk41v.sxr4.1644.s1t10.flac:744a2b2f0cbedcd9d9e738a09fc9efd7
ween2016-08-23.mk41v.sxr4.1644.s1t11.flac:eb0ed1e265ad6546df033a7754889f78
ween2016-08-23.mk41v.sxr4.1644.s1t12.flac:1b766f7d3905a8cef06bb9201d811f5d
ween2016-08-23.mk41v.sxr4.1644.s1t13.flac:6a6504ee48943e9ddc505da44823cfe8
ween2016-08-23.mk41v.sxr4.1644.s1t14.flac:849f52a662e13f48db6096fefd75b8c6
ween2016-08-23.mk41v.sxr4.1644.s1t15.flac:94964c9f93d0d47b9d32dbb79c82d17c
ween2016-08-23.mk41v.sxr4.1644.s1t16.flac:b64ecef19e05aa1dcdd9717f47010cba
ween2016-08-23.mk41v.sxr4.1644.s1t17.flac:fe4de741646aa71492e731ffa0e1c010
ween2016-08-23.mk41v.sxr4.1644.s1t18.flac:e936c9a3f30f524bdc414be3bc389775
ween2016-08-23.mk41v.sxr4.1644.s1t19.flac:471a2304d7f5636ce724a9221a677480
ween2016-08-23.mk41v.sxr4.1644.s1t20.flac:3f703564ce8e2566390b3a98ed10e5a6
ween2016-08-23.mk41v.sxr4.1644.s1t21.flac:6b999c7c80acaa77883917b1e4e064cf
ween2016-08-23.mk41v.sxr4.1644.s1t22.flac:ee1db3bd41c3dd0379c13c423a21d470
ween2016-08-23.mk41v.sxr4.1644.s1t23.flac:2747ee6843beddc820cb5a8f67e15559
ween2016-08-23.mk41v.sxr4.1644.s1t24.flac:f23537a1790c46ce72ab8aea2781b29a
ween2016-08-23.mk41v.sxr4.1644.s1t25.flac:57a12e41ac8c8b4ec2aa8839c4e40941
ween2016-08-23.mk41v.sxr4.1644.s1t26.flac:e9e6c7b9b4ae49bd661d05348d5ebc70
ween2016-08-23.mk41v.sxr4.1644.s1t27.flac:f62cc48ce93ced7ac900597b76fd7fd2
ween2016-08-23.mk41v.sxr4.1644.s1t28.flac:5490a7ef0c11f60770f4e10c7d7334fc
ween2016-08-23.mk41v.sxr4.1644.s1t29.flac:841ffa4b868f36977cf75eb0531cf38b
ween2016-08-23.mk41v.sxr4.1644.s1t30.flac:bfb018fad4930b193250339ed8ef5051
ween2016-08-23.mk41v.sxr4.1644.s1t31.flac:995009e4be1c971c211d4fa775cb9dd0
ween2016-08-23.mk41v.sxr4.1644.s1t32.flac:edb9a399e87ba5ed98e213423675c3ff
ween2016-08-23.mk41v.sxr4.1644.s1t33.flac:13732396c8de5832209276967a9906a9

    length     expanded size    cdr  WAVE problems  fmt   ratio  filename
     1:22.28       14530700 B   ---   --   -----    wav  1.0000  ween2016-08-23.mk41v.sxr4.1644.s1t01.wav
     4:08.07       43763708 B   ---   --   -----    wav  1.0000  ween2016-08-23.mk41v.sxr4.1644.s1t02.wav
     6:36.42       69953228 B   ---   --   -----    wav  1.0000  ween2016-08-23.mk41v.sxr4.1644.s1t03.wav
     3:27.43       36615980 B   ---   --   -----    wav  1.0000  ween2016-08-23.mk41v.sxr4.1644.s1t04.wav
     5:25.27       57393548 B   ---   --   -----    wav  1.0000  ween2016-08-23.mk41v.sxr4.1644.s1t05.wav
     3:38.29       38523452 B   ---   --   -----    wav  1.0000  ween2016-08-23.mk41v.sxr4.1644.s1t06.wav
     3:42.35       39243164 B   ---   --   -----    wav  1.0000  ween2016-08-23.mk41v.sxr4.1644.s1t07.wav
     3:39.04       38641052 B   ---   --   -----    wav  1.0000  ween2016-08-23.mk41v.sxr4.1644.s1t08.wav
     3:34.18       37791980 B   ---   --   -----    wav  1.0000  ween2016-08-23.mk41v.sxr4.1644.s1t09.wav
     3:10.18       33558380 B   ---   --   -----    wav  1.0000  ween2016-08-23.mk41v.sxr4.1644.s1t10.wav
    11:29.41      121636076 B   ---   --   -----    wav  1.0000  ween2016-08-23.mk41v.sxr4.1644.s1t11.wav
     3:53.15       41136524 B   ---   --   -----    wav  1.0000  ween2016-08-23.mk41v.sxr4.1644.s1t12.wav
     4:30.19       47672732 B   ---   --   -----    wav  1.0000  ween2016-08-23.mk41v.sxr4.1644.s1t13.wav
     5:45.35       60940364 B   ---   --   -----    wav  1.0000  ween2016-08-23.mk41v.sxr4.1644.s1t14.wav
     4:24.71       46736636 B   ---   --   -----    wav  1.0000  ween2016-08-23.mk41v.sxr4.1644.s1t15.wav
     2:32.68       26972780 B   ---   --   -----    wav  1.0000  ween2016-08-23.mk41v.sxr4.1644.s1t16.wav
     2:14.57       23771708 B   ---   --   -----    wav  1.0000  ween2016-08-23.mk41v.sxr4.1644.s1t17.wav
     7:21.22       77844188 B   ---   --   -----    wav  1.0000  ween2016-08-23.mk41v.sxr4.1644.s1t18.wav
     6:19.44       66959132 B   ---   --   -----    wav  1.0000  ween2016-08-23.mk41v.sxr4.1644.s1t19.wav
     4:21.05       46052204 B   ---   --   -----    wav  1.0000  ween2016-08-23.mk41v.sxr4.1644.s1t20.wav
     6:53.50       72970844 B   ---   --   -----    wav  1.0000  ween2016-08-23.mk41v.sxr4.1644.s1t21.wav
     3:34.57       37883708 B   ---   --   -----    wav  1.0000  ween2016-08-23.mk41v.sxr4.1644.s1t22.wav
     4:25.21       46795436 B   ---   --   -----    wav  1.0000  ween2016-08-23.mk41v.sxr4.1644.s1t23.wav
     4:05.71       43385036 B   ---   --   -----    wav  1.0000  ween2016-08-23.mk41v.sxr4.1644.s1t24.wav
     8:59.59       95218412 B   ---   --   -----    wav  1.0000  ween2016-08-23.mk41v.sxr4.1644.s1t25.wav
     2:40.09       28245212 B   ---   --   -----    wav  1.0000  ween2016-08-23.mk41v.sxr4.1644.s1t26.wav
     3:04.24       32514092 B   ---   --   -----    wav  1.0000  ween2016-08-23.mk41v.sxr4.1644.s1t27.wav
     6:17.38       66592220 B   ---   --   -----    wav  1.0000  ween2016-08-23.mk41v.sxr4.1644.s1t28.wav
     5:02.19       53317532 B   ---   --   -----    wav  1.0000  ween2016-08-23.mk41v.sxr4.1644.s1t29.wav
     3:09.49       33454892 B   ---   --   -----    wav  1.0000  ween2016-08-23.mk41v.sxr4.1644.s1t30.wav
     4:52.13       51539420 B   ---   --   -----    wav  1.0000  ween2016-08-23.mk41v.sxr4.1644.s1t31.wav
     5:35.55       59223404 B   ---   --   -----    wav  1.0000  ween2016-08-23.mk41v.sxr4.1644.s1t32.wav
     6:03.24       64089692 B   ---   --   -----    wav  1.0000  ween2016-08-23.mk41v.sxr4.1644.s1t33.wav
   156:21.67     1654967436 B                            1.0000  (33 files)




More information about the bittorrent mailing list