[bittorrent] gd1987-07-19.136765.sbd.GEMS.flac16

Automated Mailer noreply-bt.e at etree.org
Wed Aug 24 23:29:27 UTC 2016


Band:           Grateful Dead
Torrent Name:   gd1987-07-19.136765.sbd.GEMS.flac16
Uploaded by:    greendude
DB Link:        
Details:        http://bt.etree.org/details.php?id=588387

Contact the seeder at http://db.etree.org/greendude

If the link to this show does not work, it was probably removed for
being non-trade-friendly.

Description / text file:
-------------------------
Grateful Dead
Sunday July 19, 1987
Autzen Stadium, University of Oregon
Eugene, OR

Healy matrix -> PCM

Sony L-750ESX-HFB Dynamicron EXCELLENT SUPER HIFI VIDEO CASSETTE-> Sony SLO-1800 STEREO VIDEOCASSETTE RECORDER->
Sony PCM-601ESD DIGITAL AUDIO PROCESSOR-> SP/DIF-> Mytek Stereo 192 Sample Rate Converter-> Upsampled to 44.1kHz/24bit-> SP/DIF->
RME FIREFACE 800-> FireWire 400-> Lenovo K450e Desktop PC-> WaveLab 6.11

This recording was gratefully supplied by PO and Stucco TINA Holmes.
Thanks to spamjam for the equipment generosity.

Audition CC 2015 Mastering by Jason Chastain
tracking with Audacity-> flac level 8-> tagged with Tag&Rename and checksums with TLH by Norm
16 bit 44.1kHz a project **GEMS** August 23, 2016

Set 1
01.Iko Iko
02.tuning
03.Feel Like a Stranger
04.Franklin's Tower
05.tuning
06.New Minglewood Blues
07.tuning
08.Peggy-O
09.tuning & Addams Family Tease
10.When I Paint My Masterpiece
11.West L.A. Fadeaway
12.tuning
13.Let It Grow

Set 2
14.Gimme Some Lovin' >
15.Playing in the Band >
16.He's Gone >
17.Spoonful >
18.Drums >
19.Space >
20.The Wheel >
21.Truckin' >
22.Wharf Rat >
23.Turn On Your Lovelight

originally shared at www.shnflac.net

    length     expanded size    cdr  WAVE problems  fmt   ratio  filename
     9:24.52       99611948 B   ---   --   ---xx   flac  0.5364  gd87-07-19s1t01.flac
     1:00.09       10605212 B   ---   --   ---xx   flac  0.3957  gd87-07-19s1t02.flac
     8:07.04       85916252 B   ---   --   ---xx   flac  0.5589  gd87-07-19s1t03.flac
     9:47.64      103697372 B   ---   --   ---xx   flac  0.5407  gd87-07-19s1t04.flac
     2:38.17       27911228 B   ---   --   ---xx   flac  0.3744  gd87-07-19s1t05.flac
     7:52.16       83298476 B   ---   --   ---xx   flac  0.5533  gd87-07-19s1t06.flac
     0:43.20        7632284 B   ---   --   ---xx   flac  0.3854  gd87-07-19s1t07.flac
     6:25.42       68012828 B   ---   --   ---xx   flac  0.5002  gd87-07-19s1t08.flac
     2:00.29       21236252 B   ---   --   ---xx   flac  0.3917  gd87-07-19s1t09.flac
     4:20.72       46033388 B   ---   --   ---xx   flac  0.5400  gd87-07-19s1t10.flac
     7:48.55       82684604 B   ---   --   ---xx   flac  0.5305  gd87-07-19s1t11.flac
     1:12.70       12865484 B   ---   --   ---xx   flac  0.3621  gd87-07-19s1t12.flac
    13:04.64      138448172 B   ---   --   ---xx   flac  0.5373  gd87-07-19s1t13.flac
     5:38.08       59642060 B   ---   --   ---xx   flac  0.5274  gd87-07-19s2t01.flac
     6:55.16       73243676 B   ---   --   ---xx   flac  0.5241  gd87-07-19s2t02.flac
    10:41.13      113103020 B   ---   --   ---xx   flac  0.5008  gd87-07-19s2t03.flac
     7:10.27       75915548 B   ---   --   ---xx   flac  0.4721  gd87-07-19s2t04.flac
     6:31.05       68984204 B   ---   --   ---xx   flac  0.4590  gd87-07-19s2t05.flac
     6:20.08       67050860 B   ---   --   ---xx   flac  0.4140  gd87-07-19s2t06.flac
     5:17.31       55991756 B   ---   --   ---xx   flac  0.4998  gd87-07-19s2t07.flac
     6:10.66       65423276 B   ---   --   ---xx   flac  0.5474  gd87-07-19s2t08.flac
     9:50.26      104137196 B   ---   --   ---xx   flac  0.4880  gd87-07-19s2t09.flac
     6:07.24       64795292 B   ---   --   ---xx   flac  0.5360  gd87-07-19s2t10.flac
   145:08.63     1536240388 B                            0.5093  (23 files)



More information about the bittorrent mailing list